File Size3.784 KB (3,875 bytes)
DownloadAnonFiles | ClickNUpload | DownloadGG | KrakenFiles | MultiUp
  • BdUpload
  • DownAce
  • Fichier
  • FileCloud
  • Filerio
  • FilesCdn
  • IndiShare
  • Kbagi
  • Turbobit
  • UpToBox
  • Uppit
| ZippyShare
HashesCRC32: FB4801D3, MD5: 7BB24C64E2FA4AF06CCC3137B626B4FD, SHA1: 812210D63677A9E6019DD3422184FEAD83930814, SHA256: BA67D02F818952952115816591449D11A33E498C0AF1AC2DBF95969483687497, ED2K: 9551E775E985A0327D8045CD67BFEA5F
Additional Info
REM DISCID 6A09101B
REM COMMENT "ExactAudioCopy v1.6"
PERFORMER "Unknown Artist"
TITLE "Unknown Title"
REM COMPOSER ""
FILE "Unknown Artist - Unknown Title.wav" WAVE
  TRACK 01 AUDIO
    TITLE "Track01"
    PERFORMER "Unknown Artist"
    REM COMPOSER ""
    INDEX 01 00:00:00
  TRACK 02 AUDIO
    TITLE "Track02"
    PERFORMER "Unknown Artist"
    REM COMPOSER ""
    INDEX 00 00:37:18
    INDEX 01 00:39:05
  TRACK 03 AUDIO
    TITLE "Track03"
    PERFORMER "Unknown Artist"
    REM COMPOSER ""
    INDEX 00 02:59:13
    INDEX 01 03:01:37
  TRACK 04 AUDIO
    TITLE "Track04"
    PERFORMER "Unknown Artist"
    REM COMPOSER ""
    INDEX 00 04:38:21
    INDEX 01 04:40:45
  TRACK 05 AUDIO
    TITLE "Track05"
    PERFORMER "Unknown Artist"
    REM COMPOSER ""
    INDEX 00 05:18:49
    INDEX 01 05:20:73
  TRACK 06 AUDIO
    TITLE "Track06"
    PERFORMER "Unknown Artist"
    REM COMPOSER ""
    INDEX 00 07:05:44
    INDEX 01 07:07:30
  TRACK 07 AUDIO
    TITLE "Track07"
    PERFORMER "Unknown Artist"
    REM COMPOSER ""
    INDEX 00 08:41:61
    INDEX 01 08:43:48
  TRACK 08 AUDIO
    TITLE "Track08"
    PERFORMER "Unknown Artist"
    REM COMPOSER ""
    INDEX 00 10:48:23
    INDEX 01 10:51:09
  TRACK 09 AUDIO
    TITLE "Track09"
    PERFORMER "Unknown Artist"
    REM COMPOSER ""
    INDEX 00 12:27:39
    INDEX 01 12:29:63
  TRACK 10 AUDIO
    TITLE "Track10"
    PERFORMER "Unknown Artist"
    REM COMPOSER ""
    INDEX 00 13:06:23
    INDEX 01 13:08:47
  TRACK 11 AUDIO
    TITLE "Track11"
    PERFORMER "Unknown Artist"
    REM COMPOSER ""
    INDEX 00 15:02:64
    INDEX 01 15:05:51
  TRACK 12 AUDIO
    TITLE "Track12"
    PERFORMER "Unknown Artist"
    REM COMPOSER ""
    INDEX 00 16:30:73
    INDEX 01 16:33:60
  TRACK 13 AUDIO
    TITLE "Track13"
    PERFORMER "Unknown Artist"
    REM COMPOSER ""
    INDEX 00 18:15:46
    INDEX 01 18:18:33
  TRACK 14 AUDIO
    TITLE "Track14"
    PERFORMER "Unknown Artist"
    REM COMPOSER ""
    INDEX 00 19:57:18
    INDEX 01 19:59:47
  TRACK 15 AUDIO
    TITLE "Track15"
    PERFORMER "Unknown Artist"
    REM COMPOSER ""
    INDEX 00 20:40:07
    INDEX 01 20:42:31
  TRACK 16 AUDIO
    TITLE "Track16"
    PERFORMER "Unknown Artist"
    REM COMPOSER ""
    INDEX 00 21:22:11
    INDEX 01 21:23:73
  TRACK 17 AUDIO
    TITLE "Track17"
    PERFORMER "Unknown Artist"
    REM COMPOSER ""
    INDEX 00 21:58:65
    INDEX 01 22:01:51
  TRACK 18 AUDIO
    TITLE "Track18"
    PERFORMER "Unknown Artist"
    REM COMPOSER ""
    INDEX 00 22:39:66
    INDEX 01 22:42:52
  TRACK 19 AUDIO
    TITLE "Track19"
    PERFORMER "Unknown Artist"
    REM COMPOSER ""
    INDEX 00 24:54:16
    INDEX 01 24:56:40
  TRACK 20 AUDIO
    TITLE "Track20"
    PERFORMER "Unknown Artist"
    REM COMPOSER ""
    INDEX 00 26:03:17
    INDEX 01 26:06:03
  TRACK 21 AUDIO
    TITLE "Track21"
    PERFORMER "Unknown Artist"
    REM COMPOSER ""
    INDEX 00 27:33:02
    INDEX 01 27:34:63
  TRACK 22 AUDIO
    TITLE "Track22"
    PERFORMER "Unknown Artist"
    REM COMPOSER ""
    INDEX 00 29:19:56
    INDEX 01 29:21:43
  TRACK 23 AUDIO
    TITLE "Track23"
    PERFORMER "Unknown Artist"
    REM COMPOSER ""
    INDEX 00 29:46:04
    INDEX 01 29:48:66
  TRACK 24 AUDIO
    TITLE "Track24"
    PERFORMER "Unknown Artist"
    REM COMPOSER ""
    INDEX 00 31:25:18
    INDEX 01 31:28:05
  TRACK 25 AUDIO
    TITLE "Track25"
    PERFORMER "Unknown Artist"
    REM COMPOSER ""
    INDEX 00 33:08:32
    INDEX 01 33:10:56
  TRACK 26 AUDIO
    TITLE "Track26"
    PERFORMER "Unknown Artist"
    REM COMPOSER ""
    INDEX 00 34:46:21
    INDEX 01 34:48:45
  TRACK 27 AUDIO
    TITLE "Track27"
    PERFORMER "Unknown Artist"
    REM COMPOSER ""
    INDEX 00 36:26:57
    INDEX 01 36:30:06

Other Files in this Torrent
Vol.6 CD/Unknown Artist - Unknown Title.cue
beta
Anime DDL+NZB mirror
Current Time: 28/01/2023 14:31



About/FAQs

Discord