File Size1.575 GB (1,690,792,543 bytes)
DownloadClickNUpload
DownloadGG: Part1, Part2
KrakenFiles: Part1, Part2
MultiUp: Part1
  • BdUpload
  • DownAce
  • Fichier
  • FileCloud
  • Filerio
  • FilesCdn
  • IndiShare
  • Kbagi
  • Turbobit
  • UpToBox
  • Uppit
, Part2
  • BdUpload
  • DownAce
  • Fichier
  • FileCloud
  • Filerio
  • FilesCdn
  • IndiShare
  • Kbagi
  • Turbobit
  • UpToBox
  • Uppit
, Part3
  • BdUpload
  • DownAce
  • Fichier
  • FileCloud
  • Filerio
  • FilesCdn
  • IndiShare
  • Kbagi
  • Turbobit
  • UpToBox
  • Uppit
, Part4
  • BdUpload
  • DownAce
  • Fichier
  • FileCloud
  • Filerio
  • FilesCdn
  • IndiShare
  • Kbagi
  • Turbobit
  • UpToBox
  • Uppit

ZippyShare: Part1, Part2, Part3, Part4
HashesCRC32: 00DD0B9C, MD5: D49D2D836E8D1053D92E8BB87F98C02E, SHA1: 2029B3FF3190551F6565DA8A3B193EDF937955BB, SHA256: 84CB4695E155E8757FBB439DA2211AF270D559A6FB8B8A42C85E6BA51604B3F2, ED2K: 0B379C4DD09D71A77530802ACC8FA970
Screenshots
screenshotscreenshotscreenshotscreenshotscreenshot
SubtitlesAll Attachments | eng [ASS], ara [ASS], por [ASS], Latin American [spa, ASS], spa [ASS], ita [ASS], rus [ASS], ger [ASS], fre [ASS], Signs [eng, ASS]
Additional Info
General
Unique ID                                : 117226091702382862246499585352335745033 (0x5830EC8D0DC673664E1DA824CBCDE009)
Complete name                            : [Almighty] Kaguya-Sama Wa Kokurasetai - Ultra Romantic - 13 [BD 1920x1080 x264 FLAC AAC].mkv
Format                                   : Matroska
Format version                           : Version 4
File size                                : 1.57 GiB
Duration                                 : 25 min 31 s
Overall bit rate mode                    : Variable
Overall bit rate                         : 8 835 kb/s
Encoded date                             : UTC 2022-11-23 20:19:17
Writing application                      : mkvmerge v66.0.0 ('Josie') 32-bit
Writing library                          : libebml v1.4.2 + libmatroska v1.6.4 / Lavf58.42.101
Attachments                              : AdobeArabic-Bold.ttf / AdobeArabic-BoldItalic.otf / arial.ttf / arialbd.ttf / ariblk.ttf / comic.ttf / comicbd.ttf / comicz.ttf / courbd.ttf / georgia.ttf / georgiab.ttf / impact.ttf / tahoma.ttf / tahomabd.ttf / times.ttf / timesbd.ttf / trebuc.ttf / trebucbd.ttf / trebucbi.ttf / trebucit.ttf / verdana.ttf / verdanab.ttf / verdanai.ttf

Video
ID                                       : 1
Format                                   : AVC
Format/Info                              : Advanced Video Codec
Format profile                           : High 10@L4.1
Format settings                          : CABAC / 4 Ref Frames
Format settings, CABAC                   : Yes
Format settings, Reference frames        : 4 frames
Codec ID                                 : V_MPEG4/ISO/AVC
Duration                                 : 25 min 31 s
Bit rate                                 : 7 101 kb/s
Width                                    : 1 920 pixels
Height                                   : 1 080 pixels
Display aspect ratio                     : 16:9
Frame rate mode                          : Constant
Frame rate                               : 23.976 (24000/1001) FPS
Color space                              : YUV
Chroma subsampling                       : 4:2:0
Bit depth                                : 10 bits
Scan type                                : Progressive
Bits/(Pixel*Frame)                       : 0.143
Stream size                              : 1.27 GiB (80%)
Writing library                          : x264 core 160 r3000 33f9e14
Encoding settings                        : cabac=1 / ref=4 / deblock=1:0:0 / analyse=0x3:0x113 / me=hex / subme=8 / psy=1 / psy_rd=1.00:0.00 / mixed_ref=1 / me_range=16 / chroma_me=1 / trellis=2 / 8x8dct=1 / cqm=0 / deadzone=21,11 / fast_pskip=1 / chroma_qp_offset=-2 / threads=24 / lookahead_threads=4 / sliced_threads=0 / nr=0 / decimate=1 / interlaced=0 / bluray_compat=0 / constrained_intra=0 / bframes=3 / b_pyramid=2 / b_adapt=1 / b_bias=0 / direct=3 / weightb=1 / open_gop=0 / weightp=2 / keyint=250 / keyint_min=23 / scenecut=40 / intra_refresh=0 / rc_lookahead=50 / rc=crf / mbtree=1 / crf=16.0 / qcomp=0.60 / qpmin=0 / qpmax=81 / qpstep=4 / ip_ratio=1.40 / aq=1:1.00
Default                                  : Yes
Forced                                   : No

Audio #1
ID                                       : 2
Format                                   : FLAC
Format/Info                              : Free Lossless Audio Codec
Codec ID                                 : A_FLAC
Duration                                 : 25 min 31 s
Bit rate mode                            : Variable
Bit rate                                 : 1 544 kb/s
Channel(s)                               : 2 channels
Channel layout                           : L R
Sampling rate                            : 48.0 kHz
Frame rate                               : 11.719 FPS (4096 SPF)
Bit depth                                : 24 bits
Compression mode                         : Lossless
Stream size                              : 282 MiB (17%)
Writing library                          : libFLAC 1.2.1 (UTC 2007-09-17)
Language                                 : Japanese
Default                                  : Yes
Forced                                   : No

Audio #2
ID                                       : 3
Format                                   : AAC LC
Format/Info                              : Advanced Audio Codec Low Complexity
Codec ID                                 : A_AAC-2
Duration                                 : 25 min 30 s
Bit rate                                 : 128 kb/s
Channel(s)                               : 2 channels
Channel layout                           : L R
Sampling rate                            : 44.1 kHz
Frame rate                               : 43.066 FPS (1024 SPF)
Compression mode                         : Lossy
Stream size                              : 23.3 MiB (1%)
Language                                 : English
Default                                  : No
Forced                                   : No

Text #1
ID                                       : 4
Format                                   : ASS
Codec ID                                 : S_TEXT/ASS
Codec ID/Info                            : Advanced Sub Station Alpha
Duration                                 : 23 min 57 s
Bit rate                                 : 169 b/s
Count of elements                        : 404
Compression mode                         : Lossless
Stream size                              : 29.8 KiB (0%)
Language                                 : English
Default                                  : Yes
Forced                                   : No

Text #2
ID                                       : 5
Format                                   : ASS
Codec ID                                 : S_TEXT/ASS
Codec ID/Info                            : Advanced Sub Station Alpha
Duration                                 : 23 min 57 s
Bit rate                                 : 201 b/s
Count of elements                        : 390
Compression mode                         : Lossless
Stream size                              : 35.4 KiB (0%)
Language                                 : Arabic
Default                                  : No
Forced                                   : No

Text #3
ID                                       : 6
Format                                   : ASS
Codec ID                                 : S_TEXT/ASS
Codec ID/Info                            : Advanced Sub Station Alpha
Duration                                 : 23 min 56 s
Bit rate                                 : 154 b/s
Count of elements                        : 361
Compression mode                         : Lossless
Stream size                              : 27.0 KiB (0%)
Language                                 : Portuguese
Default                                  : No
Forced                                   : No

Text #4
ID                                       : 7
Format                                   : ASS
Codec ID                                 : S_TEXT/ASS
Codec ID/Info                            : Advanced Sub Station Alpha
Duration                                 : 25 min 0 s
Bit rate                                 : 146 b/s
Count of elements                        : 360
Compression mode                         : Lossless
Stream size                              : 26.8 KiB (0%)
Title                                    : Latin American
Language                                 : Spanish
Default                                  : No
Forced                                   : No

Text #5
ID                                       : 8
Format                                   : ASS
Codec ID                                 : S_TEXT/ASS
Codec ID/Info                            : Advanced Sub Station Alpha
Duration                                 : 25 min 0 s
Bit rate                                 : 146 b/s
Count of elements                        : 360
Compression mode                         : Lossless
Stream size                              : 26.8 KiB (0%)
Language                                 : Spanish
Default                                  : No
Forced                                   : No

Text #6
ID                                       : 9
Format                                   : ASS
Codec ID                                 : S_TEXT/ASS
Codec ID/Info                            : Advanced Sub Station Alpha
Duration                                 : 23 min 57 s
Bit rate                                 : 233 b/s
Count of elements                        : 457
Compression mode                         : Lossless
Stream size                              : 41.0 KiB (0%)
Language                                 : Italian
Default                                  : No
Forced                                   : No

Text #7
ID                                       : 10
Format                                   : ASS
Codec ID                                 : S_TEXT/ASS
Codec ID/Info                            : Advanced Sub Station Alpha
Duration                                 : 24 min 59 s
Bit rate                                 : 210 b/s
Count of elements                        : 368
Compression mode                         : Lossless
Stream size                              : 38.5 KiB (0%)
Language                                 : Russian
Default                                  : No
Forced                                   : No

Text #8
ID                                       : 11
Format                                   : ASS
Codec ID                                 : S_TEXT/ASS
Codec ID/Info                            : Advanced Sub Station Alpha
Duration                                 : 25 min 0 s
Bit rate                                 : 238 b/s
Count of elements                        : 442
Compression mode                         : Lossless
Stream size                              : 43.8 KiB (0%)
Language                                 : German
Default                                  : No
Forced                                   : No

Text #9
ID                                       : 12
Format                                   : ASS
Codec ID                                 : S_TEXT/ASS
Codec ID/Info                            : Advanced Sub Station Alpha
Duration                                 : 24 min 59 s
Bit rate                                 : 153 b/s
Count of elements                        : 366
Compression mode                         : Lossless
Stream size                              : 28.1 KiB (0%)
Language                                 : French
Default                                  : No
Forced                                   : No

Text #10
ID                                       : 13
Format                                   : ASS
Codec ID                                 : S_TEXT/ASS
Codec ID/Info                            : Advanced Sub Station Alpha
Duration                                 : 23 min 28 s
Bit rate                                 : 8 b/s
Count of elements                        : 23
Compression mode                         : Lossless
Stream size                              : 1.50 KiB (0%)
Title                                    : Signs
Language                                 : English
Default                                  : No
Forced                                   : No

Menu
00:00:00.000                             : en:Chapter 01
00:01:29.965                             : en:Chapter 02
00:20:18.634                             : en:Chapter 03
00:22:49.952                             : en:Chapter 04
00:24:19.958                             : en:Chapter 05

Other Files in this Torrent
[Almighty] Kaguya-Sama Wa Kokurasetai - Ultra Romantic - 13 [BD 1920x1080 x264 FLAC AAC].mkv
beta
Anime DDL+NZB mirror
Current Time: 28/01/2023 13:25



About/FAQs

Discord