File Size1.704 GB (1,829,155,758 bytes)
DownloadClickNUpload
DownloadGG: Part1, Part2
KrakenFiles: Part1, Part2
MultiUp: Part1
  • BdUpload
  • DownAce
  • Fichier
  • FileCloud
  • Filerio
  • FilesCdn
  • IndiShare
  • Kbagi
  • Turbobit
  • UpToBox
  • Uppit
, Part2
  • BdUpload
  • DownAce
  • Fichier
  • FileCloud
  • Filerio
  • FilesCdn
  • IndiShare
  • Kbagi
  • Turbobit
  • UpToBox
  • Uppit
, Part3
  • BdUpload
  • DownAce
  • Fichier
  • FileCloud
  • Filerio
  • FilesCdn
  • IndiShare
  • Kbagi
  • Turbobit
  • UpToBox
  • Uppit
, Part4
  • BdUpload
  • DownAce
  • Fichier
  • FileCloud
  • Filerio
  • FilesCdn
  • IndiShare
  • Kbagi
  • Turbobit
  • UpToBox
  • Uppit

ZippyShare: Part1, Part2, Part3, Part4
HashesCRC32: 1A2E47F7, MD5: 5EF1241DFAD6C09B060A704F352AEF46, SHA1: 08DA5F3D359D53E56DBA4FF799DEB20E36E577FE, SHA256: D0D9044A9C20CD1CE7CC0A3B21963E536BDC1CF8DBCAF3053401163C4467D32B, ED2K: 4F2FFF1EA09EF748A467E1D5B2892EAE
Screenshots
screenshotscreenshotscreenshotscreenshotscreenshot
SubtitlesAll Attachments | eng [ASS], ara [ASS], por [ASS], Latin American [spa, ASS], spa [ASS], ita [ASS], rus [ASS], ger [ASS], fre [ASS], Signs [eng, ASS]
Additional Info
General
Unique ID                                : 127617724648104310721894695451411329103 (0x6002479C9C428ABB17869F9781EBB04F)
Complete name                            : [Almighty] Kaguya-Sama Wa Kokurasetai - Ultra Romantic - 11 [BD 1920x1080 x264 FLAC AAC].mkv
Format                                   : Matroska
Format version                           : Version 4
File size                                : 1.70 GiB
Duration                                 : 24 min 1 s
Overall bit rate mode                    : Variable
Overall bit rate                         : 10.2 Mb/s
Encoded date                             : UTC 2022-11-23 20:16:38
Writing application                      : mkvmerge v66.0.0 ('Josie') 32-bit
Writing library                          : libebml v1.4.2 + libmatroska v1.6.4 / Lavf58.42.101
Attachments                              : AdobeArabic-Bold.ttf / AdobeArabic-BoldItalic.otf / arial.ttf / arialbd.ttf / ariblk.ttf / comic.ttf / comicbd.ttf / comicz.ttf / courbd.ttf / georgia.ttf / georgiab.ttf / impact.ttf / tahoma.ttf / tahomabd.ttf / times.ttf / timesbd.ttf / trebuc.ttf / trebucbd.ttf / trebucbi.ttf / trebucit.ttf / verdana.ttf / verdanab.ttf / verdanai.ttf

Video
ID                                       : 1
Format                                   : AVC
Format/Info                              : Advanced Video Codec
Format profile                           : High 10@L4.1
Format settings                          : CABAC / 4 Ref Frames
Format settings, CABAC                   : Yes
Format settings, Reference frames        : 4 frames
Codec ID                                 : V_MPEG4/ISO/AVC
Duration                                 : 24 min 1 s
Bit rate                                 : 8 484 kb/s
Width                                    : 1 920 pixels
Height                                   : 1 080 pixels
Display aspect ratio                     : 16:9
Frame rate mode                          : Constant
Frame rate                               : 23.976 (24000/1001) FPS
Color space                              : YUV
Chroma subsampling                       : 4:2:0
Bit depth                                : 10 bits
Scan type                                : Progressive
Bits/(Pixel*Frame)                       : 0.171
Stream size                              : 1.42 GiB (84%)
Writing library                          : x264 core 160 r3000 33f9e14
Encoding settings                        : cabac=1 / ref=4 / deblock=1:0:0 / analyse=0x3:0x113 / me=hex / subme=8 / psy=1 / psy_rd=1.00:0.00 / mixed_ref=1 / me_range=16 / chroma_me=1 / trellis=2 / 8x8dct=1 / cqm=0 / deadzone=21,11 / fast_pskip=1 / chroma_qp_offset=-2 / threads=24 / lookahead_threads=4 / sliced_threads=0 / nr=0 / decimate=1 / interlaced=0 / bluray_compat=0 / constrained_intra=0 / bframes=3 / b_pyramid=2 / b_adapt=1 / b_bias=0 / direct=3 / weightb=1 / open_gop=0 / weightp=2 / keyint=250 / keyint_min=23 / scenecut=40 / intra_refresh=0 / rc_lookahead=50 / rc=crf / mbtree=1 / crf=16.0 / qcomp=0.60 / qpmin=0 / qpmax=81 / qpstep=4 / ip_ratio=1.40 / aq=1:1.00
Default                                  : Yes
Forced                                   : No

Audio #1
ID                                       : 2
Format                                   : FLAC
Format/Info                              : Free Lossless Audio Codec
Codec ID                                 : A_FLAC
Duration                                 : 24 min 1 s
Bit rate mode                            : Variable
Bit rate                                 : 1 475 kb/s
Channel(s)                               : 2 channels
Channel layout                           : L R
Sampling rate                            : 48.0 kHz
Frame rate                               : 11.719 FPS (4096 SPF)
Bit depth                                : 24 bits
Compression mode                         : Lossless
Stream size                              : 253 MiB (15%)
Writing library                          : libFLAC 1.2.1 (UTC 2007-09-17)
Language                                 : Japanese
Default                                  : Yes
Forced                                   : No

Audio #2
ID                                       : 3
Format                                   : AAC LC
Format/Info                              : Advanced Audio Codec Low Complexity
Codec ID                                 : A_AAC-2
Duration                                 : 24 min 0 s
Bit rate                                 : 128 kb/s
Channel(s)                               : 2 channels
Channel layout                           : L R
Sampling rate                            : 44.1 kHz
Frame rate                               : 43.066 FPS (1024 SPF)
Compression mode                         : Lossy
Stream size                              : 22.0 MiB (1%)
Language                                 : English
Default                                  : No
Forced                                   : No

Text #1
ID                                       : 4
Format                                   : ASS
Codec ID                                 : S_TEXT/ASS
Codec ID/Info                            : Advanced Sub Station Alpha
Duration                                 : 22 min 27 s
Bit rate                                 : 208 b/s
Count of elements                        : 497
Compression mode                         : Lossless
Stream size                              : 34.2 KiB (0%)
Language                                 : English
Default                                  : Yes
Forced                                   : No

Text #2
ID                                       : 5
Format                                   : ASS
Codec ID                                 : S_TEXT/ASS
Codec ID/Info                            : Advanced Sub Station Alpha
Duration                                 : 22 min 27 s
Bit rate                                 : 237 b/s
Count of elements                        : 460
Compression mode                         : Lossless
Stream size                              : 39.1 KiB (0%)
Language                                 : Arabic
Default                                  : No
Forced                                   : No

Text #3
ID                                       : 6
Format                                   : ASS
Codec ID                                 : S_TEXT/ASS
Codec ID/Info                            : Advanced Sub Station Alpha
Duration                                 : 22 min 28 s
Bit rate                                 : 182 b/s
Count of elements                        : 437
Compression mode                         : Lossless
Stream size                              : 30.1 KiB (0%)
Language                                 : Portuguese
Default                                  : No
Forced                                   : No

Text #4
ID                                       : 7
Format                                   : ASS
Codec ID                                 : S_TEXT/ASS
Codec ID/Info                            : Advanced Sub Station Alpha
Duration                                 : 24 min 0 s
Bit rate                                 : 184 b/s
Count of elements                        : 427
Compression mode                         : Lossless
Stream size                              : 32.4 KiB (0%)
Title                                    : Latin American
Language                                 : Spanish
Default                                  : No
Forced                                   : No

Text #5
ID                                       : 8
Format                                   : ASS
Codec ID                                 : S_TEXT/ASS
Codec ID/Info                            : Advanced Sub Station Alpha
Duration                                 : 24 min 0 s
Bit rate                                 : 185 b/s
Count of elements                        : 427
Compression mode                         : Lossless
Stream size                              : 32.6 KiB (0%)
Language                                 : Spanish
Default                                  : No
Forced                                   : No

Text #6
ID                                       : 9
Format                                   : ASS
Codec ID                                 : S_TEXT/ASS
Codec ID/Info                            : Advanced Sub Station Alpha
Duration                                 : 22 min 56 s
Bit rate                                 : 581 b/s
Count of elements                        : 790
Compression mode                         : Lossless
Stream size                              : 97.6 KiB (0%)
Language                                 : Italian
Default                                  : No
Forced                                   : No

Text #7
ID                                       : 10
Format                                   : ASS
Codec ID                                 : S_TEXT/ASS
Codec ID/Info                            : Advanced Sub Station Alpha
Duration                                 : 22 min 54 s
Bit rate                                 : 270 b/s
Count of elements                        : 444
Compression mode                         : Lossless
Stream size                              : 45.4 KiB (0%)
Language                                 : Russian
Default                                  : No
Forced                                   : No

Text #8
ID                                       : 11
Format                                   : ASS
Codec ID                                 : S_TEXT/ASS
Codec ID/Info                            : Advanced Sub Station Alpha
Duration                                 : 22 min 56 s
Bit rate                                 : 267 b/s
Count of elements                        : 514
Compression mode                         : Lossless
Stream size                              : 44.9 KiB (0%)
Language                                 : German
Default                                  : No
Forced                                   : No

Text #9
ID                                       : 12
Format                                   : ASS
Codec ID                                 : S_TEXT/ASS
Codec ID/Info                            : Advanced Sub Station Alpha
Duration                                 : 24 min 0 s
Bit rate                                 : 184 b/s
Count of elements                        : 435
Compression mode                         : Lossless
Stream size                              : 32.5 KiB (0%)
Language                                 : French
Default                                  : No
Forced                                   : No

Text #10
ID                                       : 13
Format                                   : ASS
Codec ID                                 : S_TEXT/ASS
Codec ID/Info                            : Advanced Sub Station Alpha
Duration                                 : 22 min 24 s
Bit rate                                 : 23 b/s
Count of elements                        : 58
Compression mode                         : Lossless
Stream size                              : 3.78 KiB (0%)
Title                                    : Signs
Language                                 : English
Default                                  : No
Forced                                   : No

Menu
00:00:00.000                             : en:Chapter 01
00:01:46.023                             : en:Chapter 02
00:03:15.987                             : en:Chapter 03
00:07:52.013                             : en:Chapter 04
00:14:45.051                             : en:Chapter 05
00:22:30.057                             : en:Chapter 06

Other Files in this Torrent
[Almighty] Kaguya-Sama Wa Kokurasetai - Ultra Romantic - 11 [BD 1920x1080 x264 FLAC AAC].mkv
beta
Anime DDL+NZB mirror
Current Time: 28/01/2023 14:19



About/FAQs

Discord