[Virtuality] Chobits - 24 (DVD 576p x264 Vorbis).mkv


File Size261.0 MB (273,651,180 bytes)
DownloadAnonFiles | ClickNUpload | DropAPK | Free | MultiUp
  • BdUpload
  • DownAce
  • Fichier
  • FileCloud
  • Filerio
  • FilesCdn
  • IndiShare
  • Kbagi
  • Turbobit
  • UpToBox
  • Uppit
| SolidFiles | ZippyShare
HashesCRC32: F96391AC, MD5: 8B946E9ECCD4F02B24EA265FA443A116, SHA1: C61F8E95734D317AC5BBB527FBAABC8CC2BFB105, SHA256: 55C1A7A94B4B638283EAC22705337FE528D7C0965A8E0DFFB98EC673899F1FF6, ED2K: 01D70942AD9D6E65F4E36B2E4B6CAE14
Screenshots
screenshotscreenshotscreenshotscreenshotscreenshot
SubtitlesAll Attachments | eng [ASS]
Additional Info
General
Unique ID                                : 145187581058696516325138513409391677142 (0x6D3A1C69EED8F152C4A30EFA07DF4ED6)
Complete name                            : [Virtuality] Chobits - 24 (DVD 576p x264 Vorbis).mkv
Format                                   : Matroska
Format version                           : Version 4
File size                                : 261 MiB
Duration                                 : 23 min 40 s
Overall bit rate mode                    : Variable
Overall bit rate                         : 1 541 kb/s
Encoded date                             : UTC 2021-05-17 20:57:39
Writing application                      : mkvmerge v56.1.0 ('My Friend') 64-bit
Writing library                          : libebml v1.4.2 + libmatroska v1.6.4
Attachments                              : calibri.ttf / agpmod.ttf

Video
ID                                       : 1
Format                                   : AVC
Format/Info                              : Advanced Video Codec
Format profile                           : High 10@L3.1
Format settings                          : CABAC / 7 Ref Frames
Format settings, CABAC                   : Yes
Format settings, ReFrames                : 7 frames
Codec ID                                 : V_MPEG4/ISO/AVC
Duration                                 : 23 min 40 s
Bit rate                                 : 1 280 kb/s
Width                                    : 1 024 pixels
Height                                   : 576 pixels
Display aspect ratio                     : 16:9
Frame rate mode                          : Variable
Frame rate                               : 25.418 FPS
Original frame rate                      : 23.976 (24000/1001) FPS
Color space                              : YUV
Chroma subsampling                       : 4:2:0
Bit depth                                : 10 bits
Scan type                                : Progressive
Bits/(Pixel*Frame)                       : 0.085
Stream size                              : 217 MiB (83%)
Writing library                          : x264 0.148.x (tojio.dw)
Encoding settings                        : cabac=1 / ref=7 / deblock=1:-2:-2 / analyse=0x3:0x133 / me=tesa / subme=11 / psy=1 / psy_rd=0.40:0.00 / mixed_ref=1 / me_range=24 / chroma_me=1 / trellis=2 / 8x8dct=1 / cqm=0 / deadzone=21,11 / fast_pskip=0 / chroma_qp_offset=-2 / threads=1 / lookahead_threads=1 / sliced_threads=0 / nr=0 / decimate=1 / interlaced=0 / bluray_compat=0 / constrained_intra=0 / bframes=9 / b_pyramid=2 / b_adapt=2 / b_bias=0 / direct=3 / weightb=1 / open_gop=0 / weightp=2 / keyint=250 / keyint_min=23 / scenecut=40 / intra_refresh=0 / rc=crf / mbtree=0 / crf=14.5 / qcomp=0.60 / qpmin=0 / qpmax=81 / qpstep=4 / ip_ratio=1.40 / pb_ratio=1.30 / aq=2:0.60
Default                                  : Yes
Forced                                   : No

Audio
ID                                       : 2
Format                                   : Vorbis
Format settings, Floor                   : 1
Codec ID                                 : A_VORBIS
Duration                                 : 23 min 39 s
Bit rate mode                            : Variable
Bit rate                                 : 256 kb/s
Channel(s)                               : 2 channels
Sampling rate                            : 48.0 kHz
Frame rate                               : 80.113 FPS (599 SPF)
Compression mode                         : Lossy
Delay relative to video                  : 1 ms
Stream size                              : 43.4 MiB (17%)
Writing library                          : libVorbis 1.3.5 (tojio.dw)
Language                                 : Japanese
Default                                  : Yes
Forced                                   : No

Text
ID                                       : 3
Format                                   : ASS
Codec ID                                 : S_TEXT/ASS
Codec ID/Info                            : Advanced Sub Station Alpha
Duration                                 : 22 min 58 s
Bit rate                                 : 152 b/s
Count of elements                        : 366
Compression mode                         : Lossless
Stream size                              : 25.7 KiB (0%)
Language                                 : English
Default                                  : Yes
Forced                                   : No

Menu
00:00:00.000                             : OP
00:01:30.340                             : Part A
00:09:24.355                             : Part B
00:22:10.329                             : ED

Other Files in this Torrent
[Virtuality] Chobits - 24 (DVD 576p x264 Vorbis).mkv
beta
Anime DDL+NZB mirror
Current Time: 01/08/2021 19:25



About/FAQs