[Virtuality] Chobits - 08 (DVD 1024x576 x264 Vorbis).mkv


File Size347.6 MB (364,499,483 bytes)
DownloadAnonFiles | ClickNUpload | DropAPK | Free | MultiUp
  • BdUpload
  • DownAce
  • Fichier
  • FileCloud
  • Filerio
  • FilesCdn
  • IndiShare
  • Kbagi
  • Turbobit
  • UpToBox
  • Uppit
| SolidFiles | ZippyShare
HashesCRC32: C0392160, MD5: D679039EDBE773357C95FF9C0E2D6664, SHA1: C4157DEC724F10AD2E9D1A5105F6DA10FE15C849, SHA256: 9C2F9FBA9A17CE4570445D859D85C33ACE6AAB0537D6753CD21C4B2AA8B3DADC, ED2K: F64A0B1B96EADD65EB0F4D80EB22F1A6
Screenshots
screenshotscreenshotscreenshotscreenshotscreenshot
SubtitlesAll Attachments | eng [ASS]
Additional Info
General
Unique ID                                : 44898041112914505534169831018332406525 (0x21C70C55AE03A41D737ACFE335C3C2FD)
Complete name                            : [Virtuality] Chobits - 08 (DVD 1024x576 x264 Vorbis).mkv
Format                                   : Matroska
Format version                           : Version 4
File size                                : 348 MiB
Duration                                 : 24 min 10 s
Overall bit rate mode                    : Variable
Overall bit rate                         : 2 010 kb/s
Encoded date                             : UTC 2021-05-17 19:00:40
Writing application                      : mkvmerge v56.1.0 ('My Friend') 64-bit
Writing library                          : libebml v1.4.2 + libmatroska v1.6.4
Attachments                              : calibri.ttf / agpmod.ttf

Video
ID                                       : 1
Format                                   : AVC
Format/Info                              : Advanced Video Codec
Format profile                           : High 10@L3.1
Format settings                          : CABAC / 7 Ref Frames
Format settings, CABAC                   : Yes
Format settings, ReFrames                : 7 frames
Codec ID                                 : V_MPEG4/ISO/AVC
Duration                                 : 24 min 10 s
Bit rate                                 : 1 748 kb/s
Width                                    : 1 024 pixels
Height                                   : 576 pixels
Display aspect ratio                     : 16:9
Frame rate mode                          : Variable
Frame rate                               : 24.813 FPS
Original frame rate                      : 23.976 (24000/1001) FPS
Color space                              : YUV
Chroma subsampling                       : 4:2:0
Bit depth                                : 10 bits
Scan type                                : Progressive
Bits/(Pixel*Frame)                       : 0.119
Stream size                              : 302 MiB (87%)
Writing library                          : x264 0.148.x (tojio.dw)
Encoding settings                        : cabac=1 / ref=7 / deblock=1:-2:-2 / analyse=0x3:0x133 / me=tesa / subme=11 / psy=1 / psy_rd=0.40:0.00 / mixed_ref=1 / me_range=24 / chroma_me=1 / trellis=2 / 8x8dct=1 / cqm=0 / deadzone=21,11 / fast_pskip=0 / chroma_qp_offset=-2 / threads=1 / lookahead_threads=1 / sliced_threads=0 / nr=0 / decimate=1 / interlaced=0 / bluray_compat=0 / constrained_intra=0 / bframes=9 / b_pyramid=2 / b_adapt=2 / b_bias=0 / direct=3 / weightb=1 / open_gop=0 / weightp=2 / keyint=250 / keyint_min=23 / scenecut=40 / intra_refresh=0 / rc=crf / mbtree=0 / crf=14.5 / qcomp=0.60 / qpmin=0 / qpmax=81 / qpstep=4 / ip_ratio=1.40 / pb_ratio=1.30 / aq=2:0.60
Default                                  : Yes
Forced                                   : No

Audio
ID                                       : 2
Format                                   : Vorbis
Format settings, Floor                   : 1
Codec ID                                 : A_VORBIS
Duration                                 : 24 min 10 s
Bit rate mode                            : Variable
Bit rate                                 : 256 kb/s
Channel(s)                               : 2 channels
Sampling rate                            : 48.0 kHz
Frame rate                               : 83.610 FPS (574 SPF)
Compression mode                         : Lossy
Stream size                              : 44.3 MiB (13%)
Writing library                          : libVorbis 1.3.5 (tojio.dw)
Language                                 : Japanese
Default                                  : Yes
Forced                                   : No

Text
ID                                       : 3
Format                                   : ASS
Codec ID                                 : S_TEXT/ASS
Codec ID/Info                            : Advanced Sub Station Alpha
Duration                                 : 23 min 54 s
Bit rate                                 : 164 b/s
Count of elements                        : 408
Compression mode                         : Lossless
Stream size                              : 28.7 KiB (0%)
Language                                 : English
Default                                  : Yes
Forced                                   : No

Menu
00:00:00.000                             : OP
00:01:30.340                             : Part A
00:10:04.312                             : Part B
00:22:10.329                             : ED
00:23:40.336                             : Preview

Other Files in this Torrent
[Virtuality] Chobits - 08 (DVD 1024x576 x264 Vorbis).mkv
beta
Anime DDL+NZB mirror
Current Time: 24/09/2021 12:13



About/FAQs