[Virtuality] Chobits - 10 (DVD 576p x264 Vorbis).mkv


File Size317.6 MB (332,996,367 bytes)
DownloadAnonFiles | ClickNUpload | DropAPK | Free | MultiUp
  • BdUpload
  • DownAce
  • Fichier
  • FileCloud
  • Filerio
  • FilesCdn
  • IndiShare
  • Kbagi
  • Turbobit
  • UpToBox
  • Uppit
| SolidFiles | ZippyShare
HashesCRC32: 6E67F714, MD5: FECBBD26CAE3ECF13EB3D26EC3FA918E, SHA1: DFB78CD48D33BD0EBC664FDF7736282AA4EF5405, SHA256: 5E202EB0F71C1EF29FA0C58E516C6B7768D5516E4E32CAE2EC2014F444BBB260, ED2K: A8E4F639072FC564968FDDD9C3449EEB
Screenshots
screenshotscreenshotscreenshotscreenshotscreenshot
SubtitlesAll Attachments | eng [ASS]
Additional Info
General
Unique ID                                : 334318372864917133673448672759701490004 (0xFB83606400F5A90E3DF8CA08DA6AC954)
Complete name                            : [Virtuality] Chobits - 10 (DVD 576p x264 Vorbis).mkv
Format                                   : Matroska
Format version                           : Version 4
File size                                : 318 MiB
Duration                                 : 24 min 10 s
Overall bit rate mode                    : Variable
Overall bit rate                         : 1 836 kb/s
Encoded date                             : UTC 2021-05-17 19:10:31
Writing application                      : mkvmerge v56.1.0 ('My Friend') 64-bit
Writing library                          : libebml v1.4.2 + libmatroska v1.6.4
Attachments                              : calibri.ttf / agpmod.ttf

Video
ID                                       : 1
Format                                   : AVC
Format/Info                              : Advanced Video Codec
Format profile                           : High 10@L3.1
Format settings                          : CABAC / 7 Ref Frames
Format settings, CABAC                   : Yes
Format settings, ReFrames                : 7 frames
Codec ID                                 : V_MPEG4/ISO/AVC
Duration                                 : 24 min 10 s
Bit rate                                 : 1 575 kb/s
Width                                    : 1 024 pixels
Height                                   : 576 pixels
Display aspect ratio                     : 16:9
Frame rate mode                          : Variable
Frame rate                               : 25.630 FPS
Original frame rate                      : 23.976 (24000/1001) FPS
Color space                              : YUV
Chroma subsampling                       : 4:2:0
Bit depth                                : 10 bits
Scan type                                : Progressive
Bits/(Pixel*Frame)                       : 0.104
Stream size                              : 272 MiB (86%)
Writing library                          : x264 0.148.x (tojio.dw)
Encoding settings                        : cabac=1 / ref=7 / deblock=1:-2:-2 / analyse=0x3:0x133 / me=tesa / subme=11 / psy=1 / psy_rd=0.40:0.00 / mixed_ref=1 / me_range=24 / chroma_me=1 / trellis=2 / 8x8dct=1 / cqm=0 / deadzone=21,11 / fast_pskip=0 / chroma_qp_offset=-2 / threads=1 / lookahead_threads=1 / sliced_threads=0 / nr=0 / decimate=1 / interlaced=0 / bluray_compat=0 / constrained_intra=0 / bframes=9 / b_pyramid=2 / b_adapt=2 / b_bias=0 / direct=3 / weightb=1 / open_gop=0 / weightp=2 / keyint=250 / keyint_min=23 / scenecut=40 / intra_refresh=0 / rc=crf / mbtree=0 / crf=14.5 / qcomp=0.60 / qpmin=0 / qpmax=81 / qpstep=4 / ip_ratio=1.40 / pb_ratio=1.30 / aq=2:0.60
Default                                  : Yes
Forced                                   : No

Audio
ID                                       : 2
Format                                   : Vorbis
Format settings, Floor                   : 1
Codec ID                                 : A_VORBIS
Duration                                 : 24 min 10 s
Bit rate mode                            : Variable
Bit rate                                 : 256 kb/s
Channel(s)                               : 2 channels
Sampling rate                            : 48.0 kHz
Frame rate                               : 85.081 FPS (564 SPF)
Compression mode                         : Lossy
Stream size                              : 44.3 MiB (14%)
Writing library                          : libVorbis 1.3.5 (tojio.dw)
Language                                 : Japanese
Default                                  : Yes
Forced                                   : No

Text
ID                                       : 3
Format                                   : ASS
Codec ID                                 : S_TEXT/ASS
Codec ID/Info                            : Advanced Sub Station Alpha
Duration                                 : 23 min 54 s
Bit rate                                 : 177 b/s
Count of elements                        : 436
Compression mode                         : Lossless
Stream size                              : 31.0 KiB (0%)
Language                                 : English
Default                                  : Yes
Forced                                   : No

Menu
00:00:00.000                             : OP
00:01:30.340                             : Part A
00:12:38.383                             : Part B
00:22:10.329                             : ED
00:23:40.336                             : Preview

Other Files in this Torrent
[Virtuality] Chobits - 10 (DVD 576p x264 Vorbis).mkv
beta
Anime DDL+NZB mirror
Current Time: 24/09/2021 12:16



About/FAQs