[UDF] Tokyo Ghoul - 12 (BDRip 1080p x264 FLACx2) [dual-audio] [753B24C5].mkv


File Size2.653 GB (2,848,546,572 bytes)
DownloadAnonFiles: Part1, Part2
DropAPK: Part1, Part2
Free: Part1, Part2, Part3
MultiUp: Part1
  • BdUpload
  • DownAce
  • Fichier
  • FileCloud
  • Filerio
  • FilesCdn
  • IndiShare
  • Kbagi
  • Turbobit
  • UpToBox
  • Uppit
, Part2
  • BdUpload
  • DownAce
  • Fichier
  • FileCloud
  • Filerio
  • FilesCdn
  • IndiShare
  • Kbagi
  • Turbobit
  • UpToBox
  • Uppit
, Part3
  • BdUpload
  • DownAce
  • Fichier
  • FileCloud
  • Filerio
  • FilesCdn
  • IndiShare
  • Kbagi
  • Turbobit
  • UpToBox
  • Uppit
, Part4
  • BdUpload
  • DownAce
  • Fichier
  • FileCloud
  • Filerio
  • FilesCdn
  • IndiShare
  • Kbagi
  • Turbobit
  • UpToBox
  • Uppit
, Part5
  • BdUpload
  • DownAce
  • Fichier
  • FileCloud
  • Filerio
  • FilesCdn
  • IndiShare
  • Kbagi
  • Turbobit
  • UpToBox
  • Uppit
, Part6
  • BdUpload
  • DownAce
  • Fichier
  • FileCloud
  • Filerio
  • FilesCdn
  • IndiShare
  • Kbagi
  • Turbobit
  • UpToBox
  • Uppit

SolidFiles: Part1, Part2, Part3, Part4, Part5, Part6
ZippyShare: Part1, Part2, Part3, Part4, Part5, Part6
HashesCRC32: 753B24C5, MD5: 68D8A648C7FF53035D5C4856702701BB, SHA1: 6BD3551C917D04848E82139F75DDF4DC11C33C9D, SHA256: 04DF4E60F87DFA76264766F75A150FDF2A94AA6B159A6ABDC1CD7525752ADE23, ED2K: 6F5252FDE2C6271FDC1A8B995BE3761D
Screenshots
screenshotscreenshotscreenshotscreenshotscreenshot
SubtitlesAll Attachments | Signs & Songs (DameDesuYo) [eng, ASS], Full Subtitles (DameDesuYo) [jpn, ASS]
Additional Info
General
Unique ID                                : 191259688652651023920901177100758648431 (0x8FE346B1F7113AF50A64BB36452F866F)
Complete name                            : [UDF] Tokyo Ghoul - 12 (BDRip 1080p x264 FLACx2) [dual-audio] [753B24C5].mkv
Format                                   : Matroska
Format version                           : Version 4
File size                                : 2.65 GiB
Duration                                 : 24 min 6 s
Overall bit rate mode                    : Variable
Overall bit rate                         : 15.7 Mb/s
Movie name                               : Tokyo Ghoul - 12 - Ghoul
Encoded date                             : UTC 2020-11-08 13:00:40
Writing application                      : mkvmerge v34.0.0 ('Sight and Seen') 64-bit
Writing library                          : libebml v1.3.7 + libmatroska v1.5.0
Attachments                              : Angie-Bold.ttf / huxtable.ttf

Video
ID                                       : 1
Format                                   : AVC
Format/Info                              : Advanced Video Codec
Format profile                           : High 10@L5.1
Format settings                          : CABAC / 16 Ref Frames
Format settings, CABAC                   : Yes
Format settings, ReFrames                : 16 frames
Codec ID                                 : V_MPEG4/ISO/AVC
Duration                                 : 24 min 6 s
Bit rate                                 : 12.6 Mb/s
Width                                    : 1 920 pixels
Height                                   : 1 080 pixels
Display aspect ratio                     : 16:9
Frame rate mode                          : Constant
Frame rate                               : 23.976 (24000/1001) FPS
Color space                              : YUV
Chroma subsampling                       : 4:2:0
Bit depth                                : 10 bits
Scan type                                : Progressive
Bits/(Pixel*Frame)                       : 0.253
Stream size                              : 2.12 GiB (80%)
Title                                    : BDRip by UQW
Writing library                          : x264 core 152 r2851kMod ba24899
Encoding settings                        : cabac=1 / ref=16 / deblock=1:-2:-2 / analyse=0x3:0x133 / me=umh / subme=11 / psy=1 / fade_compensate=0.00 / psy_rd=1.00:0.00 / mixed_ref=1 / me_range=30 / chroma_me=1 / trellis=2 / 8x8dct=1 / cqm=0 / deadzone=21,11 / fast_pskip=0 / chroma_qp_offset=-2 / threads=34 / lookahead_threads=8 / sliced_threads=0 / nr=0 / decimate=1 / interlaced=0 / bluray_compat=0 / constrained_intra=0 / bframes=16 / b_pyramid=2 / b_adapt=2 / b_bias=0 / direct=3 / weightb=1 / open_gop=1 / weightp=2 / keyint=250 / keyint_min=23 / scenecut=40 / intra_refresh=0 / rc_lookahead=60 / rc=crf / mbtree=1 / crf=13.5000 / qcomp=0.70 / qpmin=0 / qpmax=81 / qpstep=4 / ip_ratio=1.40 / aq=3:1.00
Language                                 : English
Default                                  : Yes
Forced                                   : No
Color range                              : Limited
Color primaries                          : BT.709
Transfer characteristics                 : BT.709
Matrix coefficients                      : BT.709

Audio #1
ID                                       : 2
Format                                   : FLAC
Format/Info                              : Free Lossless Audio Codec
Codec ID                                 : A_FLAC
Duration                                 : 24 min 4 s
Bit rate mode                            : Variable
Bit rate                                 : 1 771 kb/s
Channel(s)                               : 6 channels
Channel layout                           : L R C LFE Ls Rs
Sampling rate                            : 48.0 kHz
Frame rate                               : 11.719 FPS (4096 SPF)
Bit depth                                : 16 bits
Compression mode                         : Lossless
Delay relative to video                  : 1 s 23 ms
Stream size                              : 305 MiB (11%)
Title                                    : English 5.1 FLAC
Writing library                          : libFLAC 1.0.4 (UTC 2014-11-25)
Language                                 : English
Default                                  : Yes
Forced                                   : No

Audio #2
ID                                       : 3
Format                                   : FLAC
Format/Info                              : Free Lossless Audio Codec
Codec ID                                 : A_FLAC
Duration                                 : 24 min 5 s
Bit rate mode                            : Variable
Bit rate                                 : 1 393 kb/s
Channel(s)                               : 2 channels
Channel layout                           : L R
Sampling rate                            : 48.0 kHz
Frame rate                               : 11.719 FPS (4096 SPF)
Bit depth                                : 24 bits
Compression mode                         : Lossless
Delay relative to video                  : 1 s 0 ms
Stream size                              : 240 MiB (9%)
Title                                    : Japanese 2.0 FLAC
Writing library                          : libFLAC 1.3.0 (UTC 2013-05-26)
Language                                 : Japanese
Default                                  : No
Forced                                   : No

Text #1
ID                                       : 4
Format                                   : ASS
Codec ID                                 : S_TEXT/ASS
Codec ID/Info                            : Advanced Sub Station Alpha
Duration                                 : 3 min 48 s
Bit rate                                 : 29.3 kb/s
Count of elements                        : 7465
Compression mode                         : Lossless
Stream size                              : 817 KiB (0%)
Title                                    : Signs & Songs (DameDesuYo)
Language                                 : English
Default                                  : Yes
Forced                                   : No

Text #2
ID                                       : 5
Format                                   : ASS
Codec ID                                 : S_TEXT/ASS
Codec ID/Info                            : Advanced Sub Station Alpha
Duration                                 : 23 min 57 s
Bit rate                                 : 4 752 b/s
Count of elements                        : 7775
Compression mode                         : Lossless
Stream size                              : 834 KiB (0%)
Title                                    : Full Subtitles (DameDesuYo)
Language                                 : Japanese
Default                                  : No
Forced                                   : No

Menu
00:00:00.000                             : en:Prologue
00:01:13.960                             : en:Part 1
00:18:38.920                             : en:Part 2

Other Files in this Torrent
[UDF] Tokyo Ghoul - 12 (BDRip 1080p x264 FLACx2) [dual-audio] [753B24C5].mkv
beta
Anime DDL+NZB mirror
Current Time: 30/11/2021 10:10



About/FAQs

Discord