[UDF] Tokyo Ghoul - 09 (BDRip 1080p x264 FLACx2) [dual-audio] [F5A13EDB].mkv


File Size2.355 GB (2,529,085,796 bytes)
DownloadAnonFiles: Part1, Part2
DropAPK: Part1, Part2
Free: Part1, Part2, Part3
MultiUp: Part1
  • BdUpload
  • DownAce
  • Fichier
  • FileCloud
  • Filerio
  • FilesCdn
  • IndiShare
  • Kbagi
  • Turbobit
  • UpToBox
  • Uppit
, Part2
  • BdUpload
  • DownAce
  • Fichier
  • FileCloud
  • Filerio
  • FilesCdn
  • IndiShare
  • Kbagi
  • Turbobit
  • UpToBox
  • Uppit
, Part3
  • BdUpload
  • DownAce
  • Fichier
  • FileCloud
  • Filerio
  • FilesCdn
  • IndiShare
  • Kbagi
  • Turbobit
  • UpToBox
  • Uppit
, Part4
  • BdUpload
  • DownAce
  • Fichier
  • FileCloud
  • Filerio
  • FilesCdn
  • IndiShare
  • Kbagi
  • Turbobit
  • UpToBox
  • Uppit
, Part5
  • BdUpload
  • DownAce
  • Fichier
  • FileCloud
  • Filerio
  • FilesCdn
  • IndiShare
  • Kbagi
  • Turbobit
  • UpToBox
  • Uppit

SolidFiles: Part1, Part2, Part3, Part4, Part5
ZippyShare: Part1, Part2, Part3, Part4, Part5
HashesCRC32: F5A13EDB, MD5: B526BA6D6098021CE29970F2E178AC0B, SHA1: 32328B6D0B05CE237BC1BA9A2C7F0DEEF3E3F7F3, SHA256: 832988D903BDD667A42547162C981A78F232493EC6D5C22E80D5CF3247C804C6, ED2K: C4584C6D698BAEF6A706469358C4EDE9
Screenshots
screenshotscreenshotscreenshotscreenshotscreenshot
SubtitlesAll Attachments | Signs & Songs (DameDesuYo) [eng, ASS], Full Subtitles (DameDesuYo) [eng, ASS]
Additional Info
General
Unique ID                                : 74063968232770311217482654912418929452 (0x37B8339063CAEDBAD0BD4F88C5F7DB2C)
Complete name                            : [UDF] Tokyo Ghoul - 09 (BDRip 1080p x264 FLACx2) [dual-audio] [F5A13EDB].mkv
Format                                   : Matroska
Format version                           : Version 4
File size                                : 2.36 GiB
Duration                                 : 24 min 7 s
Overall bit rate mode                    : Variable
Overall bit rate                         : 14.0 Mb/s
Movie name                               : Tokyo Ghoul - 09 - Birdcage
Encoded date                             : UTC 2020-11-07 21:00:23
Writing application                      : mkvmerge v34.0.0 ('Sight and Seen') 64-bit
Writing library                          : libebml v1.3.7 + libmatroska v1.5.0
Attachments                              : arial_0.ttf / ariblk.ttf / bluehighv2.ttf / CLEARGL.TTF / huxtable.ttf / ALEX_.ttf / Angie-Bold.ttf

Video
ID                                       : 1
Format                                   : AVC
Format/Info                              : Advanced Video Codec
Format profile                           : High 10@L5.1
Format settings                          : CABAC / 16 Ref Frames
Format settings, CABAC                   : Yes
Format settings, ReFrames                : 16 frames
Codec ID                                 : V_MPEG4/ISO/AVC
Duration                                 : 24 min 7 s
Bit rate                                 : 10.9 Mb/s
Width                                    : 1 920 pixels
Height                                   : 1 080 pixels
Display aspect ratio                     : 16:9
Frame rate mode                          : Constant
Frame rate                               : 23.976 (24000/1001) FPS
Color space                              : YUV
Chroma subsampling                       : 4:2:0
Bit depth                                : 10 bits
Scan type                                : Progressive
Bits/(Pixel*Frame)                       : 0.219
Stream size                              : 1.83 GiB (78%)
Title                                    : BDRip by UQW
Writing library                          : x264 core 152 r2851kMod ba24899
Encoding settings                        : cabac=1 / ref=16 / deblock=1:-2:-2 / analyse=0x3:0x133 / me=umh / subme=11 / psy=1 / fade_compensate=0.00 / psy_rd=1.00:0.00 / mixed_ref=1 / me_range=30 / chroma_me=1 / trellis=2 / 8x8dct=1 / cqm=0 / deadzone=21,11 / fast_pskip=0 / chroma_qp_offset=-2 / threads=34 / lookahead_threads=8 / sliced_threads=0 / nr=0 / decimate=1 / interlaced=0 / bluray_compat=0 / constrained_intra=0 / bframes=16 / b_pyramid=2 / b_adapt=2 / b_bias=0 / direct=3 / weightb=1 / open_gop=1 / weightp=2 / keyint=250 / keyint_min=23 / scenecut=40 / intra_refresh=0 / rc_lookahead=60 / rc=crf / mbtree=1 / crf=13.5000 / qcomp=0.70 / qpmin=0 / qpmax=81 / qpstep=4 / ip_ratio=1.40 / aq=3:1.00
Language                                 : English
Default                                  : Yes
Forced                                   : No
Color range                              : Limited
Color primaries                          : BT.709
Transfer characteristics                 : BT.709
Matrix coefficients                      : BT.709

Audio #1
ID                                       : 2
Format                                   : FLAC
Format/Info                              : Free Lossless Audio Codec
Codec ID                                 : A_FLAC
Duration                                 : 24 min 6 s
Bit rate mode                            : Variable
Bit rate                                 : 1 706 kb/s
Channel(s)                               : 6 channels
Channel layout                           : L R C LFE Ls Rs
Sampling rate                            : 48.0 kHz
Frame rate                               : 11.719 FPS (4096 SPF)
Bit depth                                : 16 bits
Compression mode                         : Lossless
Delay relative to video                  : 1 s 85 ms
Stream size                              : 294 MiB (12%)
Title                                    : English 5.1 FLAC
Writing library                          : libFLAC 1.0.4 (UTC 2014-11-25)
Language                                 : English
Default                                  : Yes
Forced                                   : No

Audio #2
ID                                       : 3
Format                                   : FLAC
Format/Info                              : Free Lossless Audio Codec
Codec ID                                 : A_FLAC
Duration                                 : 24 min 5 s
Bit rate mode                            : Variable
Bit rate                                 : 1 388 kb/s
Channel(s)                               : 2 channels
Channel layout                           : L R
Sampling rate                            : 48.0 kHz
Frame rate                               : 11.719 FPS (4096 SPF)
Bit depth                                : 24 bits
Compression mode                         : Lossless
Delay relative to video                  : 1 s 0 ms
Stream size                              : 239 MiB (10%)
Title                                    : Japanese 2.0 FLAC
Writing library                          : libFLAC 1.3.0 (UTC 2013-05-26)
Language                                 : Japanese
Default                                  : No
Forced                                   : No

Text #1
ID                                       : 4
Format                                   : ASS
Codec ID                                 : S_TEXT/ASS
Codec ID/Info                            : Advanced Sub Station Alpha
Duration                                 : 18 min 12 s
Bit rate                                 : 8 792 b/s
Count of elements                        : 2292
Compression mode                         : Lossless
Stream size                              : 1.14 MiB (0%)
Title                                    : Signs & Songs (DameDesuYo)
Language                                 : English
Default                                  : Yes
Forced                                   : No

Text #2
ID                                       : 5
Format                                   : ASS
Codec ID                                 : S_TEXT/ASS
Codec ID/Info                            : Advanced Sub Station Alpha
Duration                                 : 24 min 5 s
Bit rate                                 : 6 760 b/s
Count of elements                        : 2644
Compression mode                         : Lossless
Stream size                              : 1.16 MiB (0%)
Title                                    : Full Subtitles (DameDesuYo)
Language                                 : English
Default                                  : No
Forced                                   : No

Menu
00:00:00.000                             : en:Prologue
00:06:16.930                             : en:Opening
00:07:46.980                             : en:Part 1
00:13:52.970                             : en:Part 2
00:22:06.010                             : en:Ending
00:23:35.970                             : en:Preview

Other Files in this Torrent
[UDF] Tokyo Ghoul - 09 (BDRip 1080p x264 FLACx2) [dual-audio] [F5A13EDB].mkv
beta
Anime DDL+NZB mirror
Current Time: 30/11/2021 09:38



About/FAQs

Discord