[UDF] Tokyo Ghoul - 08 (BDRip 1080p x264 FLACx2) [dual-audio] [3903EE09].mkv


File Size3.143 GB (3,374,776,288 bytes)
DownloadAnonFiles: Part1, Part2
DropAPK: Part1, Part2
Free: Part1, Part2, Part3, Part4
MultiUp: Part1
  • BdUpload
  • DownAce
  • Fichier
  • FileCloud
  • Filerio
  • FilesCdn
  • IndiShare
  • Kbagi
  • Turbobit
  • UpToBox
  • Uppit
, Part2
  • BdUpload
  • DownAce
  • Fichier
  • FileCloud
  • Filerio
  • FilesCdn
  • IndiShare
  • Kbagi
  • Turbobit
  • UpToBox
  • Uppit
, Part3
  • BdUpload
  • DownAce
  • Fichier
  • FileCloud
  • Filerio
  • FilesCdn
  • IndiShare
  • Kbagi
  • Turbobit
  • UpToBox
  • Uppit
, Part4
  • BdUpload
  • DownAce
  • Fichier
  • FileCloud
  • Filerio
  • FilesCdn
  • IndiShare
  • Kbagi
  • Turbobit
  • UpToBox
  • Uppit
, Part5
  • BdUpload
  • DownAce
  • Fichier
  • FileCloud
  • Filerio
  • FilesCdn
  • IndiShare
  • Kbagi
  • Turbobit
  • UpToBox
  • Uppit
, Part6
  • BdUpload
  • DownAce
  • Fichier
  • FileCloud
  • Filerio
  • FilesCdn
  • IndiShare
  • Kbagi
  • Turbobit
  • UpToBox
  • Uppit
, Part7
  • BdUpload
  • DownAce
  • Fichier
  • FileCloud
  • Filerio
  • FilesCdn
  • IndiShare
  • Kbagi
  • Turbobit
  • UpToBox
  • Uppit

SolidFiles: Part1, Part2, Part3, Part4, Part5, Part6, Part7
ZippyShare: Part1, Part2, Part3, Part4, Part5, Part6, Part7
HashesCRC32: 3903EE09, MD5: CB57CFBDB1165BF00240EB40A8301F08, SHA1: 6611AA3BF0EA0250CD8C2CDD607C8F797EAAB925, SHA256: 252607AE658CB22C5159BF4B0C2ED915E0E358D44C58DFF37B1822E0BACA28DA, ED2K: FA263208AFA0F341E6C2D3744472C2CF
Screenshots
screenshotscreenshotscreenshotscreenshotscreenshot
SubtitlesAll Attachments | Signs & Songs (DameDesuYo) [eng, ASS], Full Subtitles (DameDesuYo) [eng, ASS]
Additional Info
General
Unique ID                                : 86845757197004938804002267870520614454 (0x4155E26A314A0E98FECEE97F79171E36)
Complete name                            : [UDF] Tokyo Ghoul - 08 (BDRip 1080p x264 FLACx2) [dual-audio] [3903EE09].mkv
Format                                   : Matroska
Format version                           : Version 4
File size                                : 3.14 GiB
Duration                                 : 24 min 7 s
Overall bit rate mode                    : Variable
Overall bit rate                         : 18.7 Mb/s
Movie name                               : Tokyo Ghoul - 08 - Circular
Encoded date                             : UTC 2020-11-07 20:53:27
Writing application                      : mkvmerge v34.0.0 ('Sight and Seen') 64-bit
Writing library                          : libebml v1.3.7 + libmatroska v1.5.0
Attachments                              : CLEARGL.TTF / Disney_Simple.ttf / GosmickSans.ttf / huxtable.ttf / ALEX_.ttf / Angie-Bold.ttf

Video
ID                                       : 1
Format                                   : AVC
Format/Info                              : Advanced Video Codec
Format profile                           : High 10@L5.1
Format settings                          : CABAC / 16 Ref Frames
Format settings, CABAC                   : Yes
Format settings, ReFrames                : 16 frames
Codec ID                                 : V_MPEG4/ISO/AVC
Duration                                 : 24 min 6 s
Bit rate                                 : 15.1 Mb/s
Width                                    : 1 920 pixels
Height                                   : 1 080 pixels
Display aspect ratio                     : 16:9
Frame rate mode                          : Constant
Frame rate                               : 23.976 (24000/1001) FPS
Color space                              : YUV
Chroma subsampling                       : 4:2:0
Bit depth                                : 10 bits
Scan type                                : Progressive
Bits/(Pixel*Frame)                       : 0.304
Stream size                              : 2.54 GiB (81%)
Title                                    : BDRip by UQW
Writing library                          : x264 core 152 r2851kMod ba24899
Encoding settings                        : cabac=1 / ref=16 / deblock=1:-2:-2 / analyse=0x3:0x133 / me=umh / subme=11 / psy=1 / fade_compensate=0.00 / psy_rd=1.00:0.00 / mixed_ref=1 / me_range=30 / chroma_me=1 / trellis=2 / 8x8dct=1 / cqm=0 / deadzone=21,11 / fast_pskip=0 / chroma_qp_offset=-2 / threads=34 / lookahead_threads=8 / sliced_threads=0 / nr=0 / decimate=1 / interlaced=0 / bluray_compat=0 / constrained_intra=0 / bframes=16 / b_pyramid=2 / b_adapt=2 / b_bias=0 / direct=3 / weightb=1 / open_gop=1 / weightp=2 / keyint=250 / keyint_min=23 / scenecut=40 / intra_refresh=0 / rc_lookahead=60 / rc=crf / mbtree=1 / crf=13.5000 / qcomp=0.70 / qpmin=0 / qpmax=81 / qpstep=4 / ip_ratio=1.40 / aq=3:1.00
Language                                 : English
Default                                  : Yes
Forced                                   : No
Color range                              : Limited
Color primaries                          : BT.709
Transfer characteristics                 : BT.709
Matrix coefficients                      : BT.709

Audio #1
ID                                       : 2
Format                                   : FLAC
Format/Info                              : Free Lossless Audio Codec
Codec ID                                 : A_FLAC
Duration                                 : 24 min 5 s
Bit rate mode                            : Variable
Bit rate                                 : 1 992 kb/s
Channel(s)                               : 6 channels
Channel layout                           : L R C LFE Ls Rs
Sampling rate                            : 48.0 kHz
Frame rate                               : 11.719 FPS (4096 SPF)
Bit depth                                : 16 bits
Compression mode                         : Lossless
Delay relative to video                  : 1 s 82 ms
Stream size                              : 343 MiB (11%)
Title                                    : English 5.1 FLAC
Writing library                          : libFLAC 1.0.4 (UTC 2014-11-25)
Language                                 : English
Default                                  : Yes
Forced                                   : No

Audio #2
ID                                       : 3
Format                                   : FLAC
Format/Info                              : Free Lossless Audio Codec
Codec ID                                 : A_FLAC
Duration                                 : 24 min 4 s
Bit rate mode                            : Variable
Bit rate                                 : 1 559 kb/s
Channel(s)                               : 2 channels
Channel layout                           : L R
Sampling rate                            : 48.0 kHz
Frame rate                               : 11.719 FPS (4096 SPF)
Bit depth                                : 24 bits
Compression mode                         : Lossless
Delay relative to video                  : 1 s 0 ms
Stream size                              : 269 MiB (8%)
Title                                    : Japanese 2.0 FLAC
Writing library                          : libFLAC 1.3.0 (UTC 2013-05-26)
Language                                 : Japanese
Default                                  : No
Forced                                   : No

Text #1
ID                                       : 4
Format                                   : ASS
Codec ID                                 : S_TEXT/ASS
Codec ID/Info                            : Advanced Sub Station Alpha
Duration                                 : 23 min 30 s
Bit rate                                 : 5 604 b/s
Count of elements                        : 1068
Compression mode                         : Lossless
Stream size                              : 965 KiB (0%)
Title                                    : Signs & Songs (DameDesuYo)
Language                                 : English
Default                                  : Yes
Forced                                   : No

Text #2
ID                                       : 5
Format                                   : ASS
Codec ID                                 : S_TEXT/ASS
Codec ID/Info                            : Advanced Sub Station Alpha
Duration                                 : 24 min 4 s
Bit rate                                 : 5 546 b/s
Count of elements                        : 1338
Compression mode                         : Lossless
Stream size                              : 978 KiB (0%)
Title                                    : Full Subtitles (DameDesuYo)
Language                                 : English
Default                                  : No
Forced                                   : No

Menu
00:00:00.000                             : en:Prologue
00:01:14.970                             : en:Opening
00:02:45.010                             : en:Part 1
00:11:17.980                             : en:Part 2
00:22:05.460                             : en:Ending
00:23:35.930                             : en:Preview

Other Files in this Torrent
[UDF] Tokyo Ghoul - 08 (BDRip 1080p x264 FLACx2) [dual-audio] [3903EE09].mkv
beta
Anime DDL+NZB mirror
Current Time: 30/11/2021 09:43



About/FAQs

Discord