File Size1.588 GB (1,704,765,513 bytes)
DownloadClickNUpload
DownloadGG: Part1, Part2
KrakenFiles: Part1, Part2
MultiUp: Part1
  • BdUpload
  • DownAce
  • Fichier
  • FileCloud
  • Filerio
  • FilesCdn
  • IndiShare
  • Kbagi
  • Turbobit
  • UpToBox
  • Uppit
, Part2
  • BdUpload
  • DownAce
  • Fichier
  • FileCloud
  • Filerio
  • FilesCdn
  • IndiShare
  • Kbagi
  • Turbobit
  • UpToBox
  • Uppit
, Part3
  • BdUpload
  • DownAce
  • Fichier
  • FileCloud
  • Filerio
  • FilesCdn
  • IndiShare
  • Kbagi
  • Turbobit
  • UpToBox
  • Uppit
, Part4
  • BdUpload
  • DownAce
  • Fichier
  • FileCloud
  • Filerio
  • FilesCdn
  • IndiShare
  • Kbagi
  • Turbobit
  • UpToBox
  • Uppit

ZippyShare: Part1, Part2, Part3, Part4
HashesCRC32: 59CA4FCF, MD5: D7F22841FC38E884760C4A73FC229A54, SHA1: 8A45B46ACA9A757E4BD08677952B2124A94BDF03, SHA256: 304C17285FBEBD889DBF6493C51EF1458D4B3D91FCA90E8B836CDBFDAF5C3D3D, ED2K: E95171B863652691402A7F094E791707
Screenshots
screenshotscreenshotscreenshotscreenshotscreenshot
SubtitlesAll Attachments | Signs & Songs [eng, ASS], Dialogue [eng, ASS]
Additional Info
General
Unique ID                                : 148035644772640415483888603103879261575 (0x6F5EA0CBD85B1BB08B4F4F2E78146D87)
Complete name                            : Teasing Master Takagi-san - S03E09 [BD 1080p AVC AAC-FLAC] [Dual-Audio].mkv
Format                                   : Matroska
Format version                           : Version 4
File size                                : 1.59 GiB
Duration                                 : 24 min 22 s
Overall bit rate mode                    : Variable
Overall bit rate                         : 9 325 kb/s
Encoded date                             : UTC 2022-07-01 17:09:21
Writing application                      : mkvmerge v58.0.0 ('Supper's Ready') 64-bit
Writing library                          : libebml v1.4.2 + libmatroska v1.6.4
Cover                                    : Yes
Attachments                              : GandhiSans-Bold.otf / Mercurius-Medium.otf / Roboto-Medium.ttf / arialbd.ttf / cover.jpg

Video
ID                                       : 1
Format                                   : AVC
Format/Info                              : Advanced Video Codec
Format profile                           : High@L4.1
Format settings                          : CABAC / 4 Ref Frames
Format settings, CABAC                   : Yes
Format settings, Reference frames        : 4 frames
Codec ID                                 : V_MPEG4/ISO/AVC
Duration                                 : 23 min 39 s
Bit rate                                 : 8 770 kb/s
Width                                    : 1 920 pixels
Height                                   : 1 080 pixels
Display aspect ratio                     : 16:9
Frame rate mode                          : Constant
Frame rate                               : 23.976 (24000/1001) FPS
Color space                              : YUV
Chroma subsampling                       : 4:2:0
Bit depth                                : 8 bits
Scan type                                : Progressive
Bits/(Pixel*Frame)                       : 0.176
Stream size                              : 1.45 GiB (91%)
Writing library                          : x264 core 157 r2969 d4099dd
Encoding settings                        : cabac=1 / ref=4 / deblock=1:-1:-1 / analyse=0x3:0x133 / me=umh / subme=9 / psy=1 / psy_rd=0.95:0.00 / mixed_ref=1 / me_range=32 / chroma_me=1 / trellis=2 / 8x8dct=1 / cqm=0 / deadzone=21,11 / fast_pskip=1 / chroma_qp_offset=-4 / threads=4 / lookahead_threads=1 / sliced_threads=0 / nr=0 / decimate=0 / interlaced=0 / bluray_compat=0 / constrained_intra=0 / bframes=5 / b_pyramid=2 / b_adapt=2 / b_bias=0 / direct=2 / weightb=1 / open_gop=0 / weightp=2 / keyint=230 / keyint_min=23 / scenecut=40 / intra_refresh=0 / rc_lookahead=60 / rc=crf / mbtree=1 / crf=15.0 / qcomp=0.70 / qpmin=10 / qpmax=42 / qpstep=4 / vbv_maxrate=50000 / vbv_bufsize=50000 / crf_max=0.0 / nal_hrd=none / filler=0 / ip_ratio=1.40 / aq=1:0.90
Language                                 : Japanese
Default                                  : Yes
Forced                                   : No

Audio #1
ID                                       : 2
Format                                   : AAC LC
Format/Info                              : Advanced Audio Codec Low Complexity
Codec ID                                 : A_AAC-2
Duration                                 : 24 min 22 s
Bit rate                                 : 159 kb/s
Channel(s)                               : 2 channels
Channel layout                           : L R
Sampling rate                            : 48.0 kHz
Frame rate                               : 46.875 FPS (1024 SPF)
Compression mode                         : Lossy
Delay relative to video                  : 11 ms
Stream size                              : 27.8 MiB (2%)
Title                                    : ENG
Language                                 : English
Default                                  : Yes
Forced                                   : No

Audio #2
ID                                       : 3
Format                                   : FLAC
Format/Info                              : Free Lossless Audio Codec
Codec ID                                 : A_FLAC
Duration                                 : 23 min 39 s
Bit rate mode                            : Variable
Bit rate                                 : 652 kb/s
Channel(s)                               : 2 channels
Channel layout                           : L R
Sampling rate                            : 48.0 kHz
Frame rate                               : 11.719 FPS (4096 SPF)
Bit depth                                : 16 bits
Compression mode                         : Lossless
Stream size                              : 110 MiB (7%)
Title                                    : JPN
Writing library                          : libFLAC 1.3.2 (UTC 2017-01-01)
Language                                 : Japanese
Default                                  : No
Forced                                   : No

Text #1
ID                                       : 4
Format                                   : ASS
Codec ID                                 : S_TEXT/ASS
Codec ID/Info                            : Advanced Sub Station Alpha
Duration                                 : 23 min 19 s
Bit rate                                 : 5 208 b/s
Count of elements                        : 4397
Compression mode                         : Lossless
Stream size                              : 890 KiB (0%)
Title                                    : Signs & Songs
Language                                 : English
Default                                  : Yes
Forced                                   : Yes

Text #2
ID                                       : 5
Format                                   : ASS
Codec ID                                 : S_TEXT/ASS
Codec ID/Info                            : Advanced Sub Station Alpha
Duration                                 : 23 min 19 s
Bit rate                                 : 5 295 b/s
Count of elements                        : 4688
Compression mode                         : Lossless
Stream size                              : 905 KiB (0%)
Title                                    : Dialogue
Language                                 : English
Default                                  : No
Forced                                   : No

Menu
00:00:00.000                             : Intro
00:01:28.003                             : OP
00:02:58.076                             : Main EP
00:22:42.057                             : ED

Other Files in this Torrent
Teasing Master Takagi-san - S03E09 [BD 1080p AVC AAC-FLAC] [Dual-Audio].mkv
beta
Anime DDL+NZB mirror
Current Time: 26/02/2024 02:22



About/FAQs

Discord