File Size1.363 GB (1,463,089,115 bytes)
DownloadClickNUpload
DownloadGG: Part1, Part2
KrakenFiles: Part1, Part2
MultiUp: Part1
  • BdUpload
  • DownAce
  • Fichier
  • FileCloud
  • Filerio
  • FilesCdn
  • IndiShare
  • Kbagi
  • Turbobit
  • UpToBox
  • Uppit
, Part2
  • BdUpload
  • DownAce
  • Fichier
  • FileCloud
  • Filerio
  • FilesCdn
  • IndiShare
  • Kbagi
  • Turbobit
  • UpToBox
  • Uppit
, Part3
  • BdUpload
  • DownAce
  • Fichier
  • FileCloud
  • Filerio
  • FilesCdn
  • IndiShare
  • Kbagi
  • Turbobit
  • UpToBox
  • Uppit

ZippyShare: Part1, Part2, Part3
HashesCRC32: D43E2584, MD5: 921D10EB1DEA044E91FB15FF44ED507B, SHA1: A5D4EC5C9B9B5F8D86A5F84A80B3C047F7A31FA7, SHA256: 778F66D1FF367F2F3D014A302179E4E7550F479A8F08DC5F1363A20E8C11871B, ED2K: 8093D88CE134B7A6DF5B4CD2CBDDBE16
Screenshots
screenshotscreenshotscreenshotscreenshotscreenshot
SubtitlesAll Attachments | Signs & Songs [eng, ASS], Dialogue [eng, ASS]
Additional Info
General
Unique ID                                : 170141481091893631400893112842544811049 (0x80000EACA2FFF32FD385FDA899D90C29)
Complete name                            : Teasing Master Takagi-san - S03E01 [BD 1080p AVC AAC-FLAC] [Dual-Audio].mkv
Format                                   : Matroska
Format version                           : Version 4
File size                                : 1.36 GiB
Duration                                 : 24 min 23 s
Overall bit rate mode                    : Variable
Overall bit rate                         : 8 000 kb/s
Encoded date                             : UTC 2022-05-14 19:13:44
Writing application                      : mkvmerge v58.0.0 ('Supper's Ready') 64-bit
Writing library                          : libebml v1.4.2 + libmatroska v1.6.4
Cover                                    : Yes
Attachments                              : GandhiSans-Italic.otf / GandhiSans-Regular.otf / grain.ttf / Iwaminpro-Md-Kami.ttf / JurassicPark-BL48.ttf / Mercurius-Medium.otf / sawarabi-mincho-medium.ttf / SFProDisplay-Regular.ttf / Top Secret.ttf / A-OTF-MoariaStd-Regular.otf / arial.ttf / CCSignLanguage-Regular.otf / Chawp.otf / CoveredByYourGrace-Regular.ttf / Cracks.ttf / DJB_Writes_a_Lot.ttf / FOT-SeuratProN-DB.otf / Gandhisans-Bold.otf / GandhiSans-BoldItalic.otf / cover.jpg

Video
ID                                       : 1
Format                                   : AVC
Format/Info                              : Advanced Video Codec
Format profile                           : High@L4.1
Format settings                          : CABAC / 4 Ref Frames
Format settings, CABAC                   : Yes
Format settings, Reference frames        : 4 frames
Codec ID                                 : V_MPEG4/ISO/AVC
Duration                                 : 23 min 38 s
Bit rate                                 : 7 270 kb/s
Width                                    : 1 920 pixels
Height                                   : 1 080 pixels
Display aspect ratio                     : 16:9
Frame rate mode                          : Constant
Frame rate                               : 23.976 (24000/1001) FPS
Color space                              : YUV
Chroma subsampling                       : 4:2:0
Bit depth                                : 8 bits
Scan type                                : Progressive
Bits/(Pixel*Frame)                       : 0.146
Stream size                              : 1.20 GiB (88%)
Writing library                          : x264 core 157 r2969 d4099dd
Encoding settings                        : cabac=1 / ref=4 / deblock=1:-1:-1 / analyse=0x3:0x133 / me=umh / subme=9 / psy=1 / psy_rd=0.95:0.00 / mixed_ref=1 / me_range=32 / chroma_me=1 / trellis=2 / 8x8dct=1 / cqm=0 / deadzone=21,11 / fast_pskip=1 / chroma_qp_offset=-4 / threads=4 / lookahead_threads=1 / sliced_threads=0 / nr=0 / decimate=0 / interlaced=0 / bluray_compat=0 / constrained_intra=0 / bframes=5 / b_pyramid=2 / b_adapt=2 / b_bias=0 / direct=2 / weightb=1 / open_gop=0 / weightp=2 / keyint=230 / keyint_min=23 / scenecut=40 / intra_refresh=0 / rc_lookahead=60 / rc=crf / mbtree=1 / crf=15.0 / qcomp=0.70 / qpmin=10 / qpmax=42 / qpstep=4 / vbv_maxrate=50000 / vbv_bufsize=50000 / crf_max=0.0 / nal_hrd=none / filler=0 / ip_ratio=1.40 / aq=1:0.90
Language                                 : Japanese
Default                                  : Yes
Forced                                   : No

Audio #1
ID                                       : 2
Format                                   : AAC LC
Format/Info                              : Advanced Audio Codec Low Complexity
Codec ID                                 : A_AAC-2
Duration                                 : 24 min 22 s
Bit rate                                 : 159 kb/s
Channel(s)                               : 2 channels
Channel layout                           : L R
Sampling rate                            : 48.0 kHz
Frame rate                               : 46.875 FPS (1024 SPF)
Compression mode                         : Lossy
Delay relative to video                  : 14 ms
Stream size                              : 27.8 MiB (2%)
Title                                    : ENG
Language                                 : English
Default                                  : Yes
Forced                                   : No

Audio #2
ID                                       : 3
Format                                   : FLAC
Format/Info                              : Free Lossless Audio Codec
Codec ID                                 : A_FLAC
Duration                                 : 23 min 38 s
Bit rate mode                            : Variable
Bit rate                                 : 704 kb/s
Channel(s)                               : 2 channels
Channel layout                           : L R
Sampling rate                            : 48.0 kHz
Frame rate                               : 11.719 FPS (4096 SPF)
Bit depth                                : 16 bits
Compression mode                         : Lossless
Stream size                              : 119 MiB (9%)
Title                                    : JPN
Writing library                          : libFLAC 1.3.2 (UTC 2017-01-01)
Language                                 : Japanese
Default                                  : No
Forced                                   : No

Text #1
ID                                       : 4
Format                                   : ASS
Codec ID                                 : S_TEXT/ASS
Codec ID/Info                            : Advanced Sub Station Alpha
Duration                                 : 23 min 29 s
Bit rate                                 : 7 359 b/s
Count of elements                        : 6662
Compression mode                         : Lossless
Stream size                              : 1.24 MiB (0%)
Title                                    : Signs & Songs
Language                                 : English
Default                                  : Yes
Forced                                   : Yes

Text #2
ID                                       : 5
Format                                   : ASS
Codec ID                                 : S_TEXT/ASS
Codec ID/Info                            : Advanced Sub Station Alpha
Duration                                 : 23 min 29 s
Bit rate                                 : 10.0 kb/s
Count of elements                        : 7449
Compression mode                         : Lossless
Stream size                              : 1.68 MiB (0%)
Title                                    : Dialogue
Language                                 : English
Default                                  : No
Forced                                   : No

Menu
00:00:00.000                             : Intro
00:01:18.960                             : OP
00:22:07.810                             : ED
00:02:48.980                             : The Grip Strength Thingy
00:08:40.870                             : Sunburn
00:16:28.800                             : New semester

Other Files in this Torrent
Teasing Master Takagi-san - S03E01 [BD 1080p AVC AAC-FLAC] [Dual-Audio].mkv
beta
Anime DDL+NZB mirror
Current Time: 26/02/2024 02:26



About/FAQs

Discord