File Size110.3 MB (115,657,998 bytes)
DownloadAnonFiles | ClickNUpload | DropAPK | Free | MultiUp
  • BdUpload
  • DownAce
  • Fichier
  • FileCloud
  • Filerio
  • FilesCdn
  • IndiShare
  • Kbagi
  • Turbobit
  • UpToBox
  • Uppit
| SolidFiles | ZippyShare
HashesCRC32: C3C37B9B, MD5: 114F36BDC55AC80EA65F5BAA18D20152, SHA1: C41109B17D19E3F8D3B33BE1D41ACB5AC9DB21A3, SHA256: 41DF2C5FBA75E869D4E92ECABF3FE4AAB4E83479ED08CDD75D13E13D197C8626, ED2K: E606CFC39485956A23DCAD372C52E98F
Screenshots
screenshotscreenshotscreenshotscreenshotscreenshot
Additional Info
General
Complete name                            : [SSA] Gal to Kyouryuu - 09 [480p].mp4
Format                                   : MPEG-4
Format profile                           : Base Media
Codec ID                                 : isom (isom/iso2/mp41)
File size                                : 110 MiB
Duration                                 : 23 min 54 s
Overall bit rate mode                    : Variable
Overall bit rate                         : 645 kb/s
Writing application                      : Lavf58.64.100

Video
ID                                       : 1
Format                                   : HEVC
Format/Info                              : High Efficiency Video Coding
Format profile                           : Main@L3@Main
Codec ID                                 : hev1
Codec ID/Info                            : High Efficiency Video Coding
Duration                                 : 23 min 54 s
Bit rate                                 : 553 kb/s
Width                                    : 848 pixels
Height                                   : 480 pixels
Display aspect ratio                     : 16:9
Original display aspect ratio            : 16:9
Frame rate mode                          : Constant
Frame rate                               : 23.976 (24000/1001) FPS
Color space                              : YUV
Chroma subsampling                       : 4:2:0
Bit depth                                : 8 bits
Scan type                                : Progressive
Bits/(Pixel*Frame)                       : 0.057
Stream size                              : 94.5 MiB (86%)
Color range                              : Limited
Color primaries                          : BT.709
Transfer characteristics                 : BT.709
Matrix coefficients                      : BT.709
Codec configuration box                  : hvcC

Audio
ID                                       : 2
Format                                   : AAC LC
Format/Info                              : Advanced Audio Codec Low Complexity
Codec ID                                 : mp4a-40-2
Duration                                 : 23 min 54 s
Bit rate mode                            : Variable
Bit rate                                 : 85.7 kb/s
Maximum bit rate                         : 96.0 kb/s / 96.0 kb/s
Channel(s)                               : 2 channels
Channel layout                           : L R
Sampling rate                            : 48.0 kHz
Frame rate                               : 46.875 FPS (1024 SPF)
Compression mode                         : Lossy
Stream size                              : 14.7 MiB (13%)
Language                                 : Japanese
Default                                  : Yes
Alternate group                          : 1

Other Files in this Torrent
[SSA] Gal to Kyouryuu - 09 [480p].mp4
beta
Anime DDL+NZB mirror
Current Time: 27/10/2021 03:11



About/FAQs

Discord