File Size130.1 MB (136,398,060 bytes)
DownloadAnonFiles | ClickNUpload | DropAPK | Free | MultiUp
  • BdUpload
  • DownAce
  • Fichier
  • FileCloud
  • Filerio
  • FilesCdn
  • IndiShare
  • Kbagi
  • Turbobit
  • UpToBox
  • Uppit
| SolidFiles | ZippyShare
HashesCRC32: 7354EA27, MD5: 46BFB114FDFEE3136A0E552ABDF52E92, SHA1: AEAAF0B6B8D14BA50289E80DEF6AC448A4825B58, SHA256: 57AD5B17BF4D06B1FEB3F9C3DC6BA5E99BF3B36B226E3479A3CD0CA332F5A365, ED2K: BC081F39ECE34147A69D488D073A4AB7
Screenshots
screenshotscreenshotscreenshotscreenshotscreenshot
Additional Info
General
Complete name                            : [SSA] Gal to Kyouryuu - 05 [480p].mp4
Format                                   : MPEG-4
Format profile                           : Base Media
Codec ID                                 : isom (isom/iso2/mp41)
File size                                : 130 MiB
Duration                                 : 23 min 54 s
Overall bit rate mode                    : Variable
Overall bit rate                         : 761 kb/s
Writing application                      : Lavf58.64.100

Video
ID                                       : 1
Format                                   : HEVC
Format/Info                              : High Efficiency Video Coding
Format profile                           : Main@L3@Main
Codec ID                                 : hev1
Codec ID/Info                            : High Efficiency Video Coding
Duration                                 : 23 min 54 s
Bit rate                                 : 667 kb/s
Width                                    : 848 pixels
Height                                   : 480 pixels
Display aspect ratio                     : 16:9
Original display aspect ratio            : 16:9
Frame rate mode                          : Constant
Frame rate                               : 23.976 (24000/1001) FPS
Color space                              : YUV
Chroma subsampling                       : 4:2:0
Bit depth                                : 8 bits
Scan type                                : Progressive
Bits/(Pixel*Frame)                       : 0.068
Stream size                              : 114 MiB (88%)
Color range                              : Limited
Color primaries                          : BT.709
Transfer characteristics                 : BT.709
Matrix coefficients                      : BT.709
Codec configuration box                  : hvcC

Audio
ID                                       : 2
Format                                   : AAC LC
Format/Info                              : Advanced Audio Codec Low Complexity
Codec ID                                 : mp4a-40-2
Duration                                 : 23 min 54 s
Bit rate mode                            : Variable
Bit rate                                 : 86.9 kb/s
Maximum bit rate                         : 96.0 kb/s / 96.0 kb/s
Channel(s)                               : 2 channels
Channel layout                           : L R
Sampling rate                            : 48.0 kHz
Frame rate                               : 46.875 FPS (1024 SPF)
Compression mode                         : Lossy
Stream size                              : 14.9 MiB (11%)
Language                                 : Japanese
Default                                  : Yes
Alternate group                          : 1

Other Files in this Torrent
[SSA] Gal to Kyouryuu - 05 [480p].mp4
beta
Anime DDL+NZB mirror
Current Time: 27/10/2021 03:02



About/FAQs

Discord