File Size100.2 MB (105,092,227 bytes)
DownloadAnonFiles | ClickNUpload | DropAPK | Free | MultiUp
  • BdUpload
  • DownAce
  • Fichier
  • FileCloud
  • Filerio
  • FilesCdn
  • IndiShare
  • Kbagi
  • Turbobit
  • UpToBox
  • Uppit
| SolidFiles | ZippyShare
HashesCRC32: 629E30EC, MD5: C5FDD0723E2C8C38002580D87B0695B7, SHA1: 84ED5746D38182CF9EFE76F8D44EF19AEC3F3904, SHA256: 3BE6F06364877BB931606B2C6D9F0DAF08ED0121B5A24D65F2AD48E78CF22FA2, ED2K: 98D597025DF39BDCAB1E780CCB592900
Screenshots
screenshotscreenshotscreenshotscreenshotscreenshot
Additional Info
General
Complete name                            : [SSA] Gal to Kyouryuu - 02 [480p].mp4
Format                                   : MPEG-4
Format profile                           : Base Media
Codec ID                                 : isom (isom/iso2/mp41)
File size                                : 100 MiB
Duration                                 : 23 min 54 s
Overall bit rate mode                    : Variable
Overall bit rate                         : 586 kb/s
Writing application                      : Lavf58.64.100

Video
ID                                       : 1
Format                                   : HEVC
Format/Info                              : High Efficiency Video Coding
Format profile                           : Main@L3@Main
Codec ID                                 : hev1
Codec ID/Info                            : High Efficiency Video Coding
Duration                                 : 23 min 54 s
Bit rate                                 : 495 kb/s
Width                                    : 848 pixels
Height                                   : 480 pixels
Display aspect ratio                     : 16:9
Original display aspect ratio            : 16:9
Frame rate mode                          : Constant
Frame rate                               : 23.976 (24000/1001) FPS
Color space                              : YUV
Chroma subsampling                       : 4:2:0
Bit depth                                : 8 bits
Scan type                                : Progressive
Bits/(Pixel*Frame)                       : 0.051
Stream size                              : 84.6 MiB (84%)
Color range                              : Limited
Color primaries                          : BT.709
Transfer characteristics                 : BT.709
Matrix coefficients                      : BT.709
Codec configuration box                  : hvcC

Audio
ID                                       : 2
Format                                   : AAC LC
Format/Info                              : Advanced Audio Codec Low Complexity
Codec ID                                 : mp4a-40-2
Duration                                 : 23 min 54 s
Bit rate mode                            : Variable
Bit rate                                 : 84.7 kb/s
Maximum bit rate                         : 96.0 kb/s / 96.0 kb/s
Channel(s)                               : 2 channels
Channel layout                           : L R
Sampling rate                            : 48.0 kHz
Frame rate                               : 46.875 FPS (1024 SPF)
Compression mode                         : Lossy
Stream size                              : 14.5 MiB (14%)
Language                                 : Japanese
Default                                  : Yes
Alternate group                          : 1

Other Files in this Torrent
[SSA] Gal to Kyouryuu - 02 [480p].mp4
beta
Anime DDL+NZB mirror
Current Time: 27/10/2021 02:41



About/FAQs

Discord