Specials (Unsubbed)/Mob Psycho 100 - SP5 (BD 1280x720 x264 AAC).mp4


File Size25.68 MB (26,925,967 bytes)
DownloadClickNUpload | Go4Up | Jheberg | MultiUp
  • ClickNupload
  • Fichier
  • Filerio
  • Free
  • Fufox
  • HugeFiles
  • Mightyupload
  • ToutBox
  • Turbobit
  • UpToBox
  • Uplea
  • UploadBaz
  • Uploadable
  • Uploaded
  • Uppit
  • Userscloud
  • ZippyShare
| OpenLoad | Sendspace | SolidFiles
HashesCRC32: AF6DE9BD, MD5: 0E52491E8849D361F56D8339A315F4E5, SHA1: D3F2A95509C4EFA0858E51E9C6DE92909DFEFE36, SHA256: E592DB3716474CACEA276AB935623A50736A9A85C89562C7CDF753251664D793, ED2K: DADF599A6C6A528F547994243BB87B46
Screenshots
screenshotscreenshotscreenshotscreenshotscreenshot
Additional Info
General
Complete name                            : Mob Psycho 100 - SP5 (BD 1280x720 x264 AAC).mp4
Format                                   : MPEG-4
Format profile                           : Base Media
Codec ID                                 : isom (isom/avc1)
File size                                : 25.7 MiB
Duration                                 : 6 min 3 s
Overall bit rate mode                    : Variable
Overall bit rate                         : 593 kb/s
Encoded date                             : UTC 2017-05-09 03:51:17
Tagged date                              : UTC 2017-05-09 03:51:17

Video
ID                                       : 1
Format                                   : AVC
Format/Info                              : Advanced Video Codec
Format profile                           : Main@L4.1
Format settings, CABAC                   : Yes
Format settings, ReFrames                : 4 frames
Codec ID                                 : avc1
Codec ID/Info                            : Advanced Video Coding
Duration                                 : 6 min 3 s
Bit rate                                 : 390 kb/s
Maximum bit rate                         : 2 587 kb/s
Width                                    : 1 280 pixels
Height                                   : 720 pixels
Display aspect ratio                     : 16:9
Frame rate mode                          : Constant
Frame rate                               : 23.976 (24000/1001) FPS
Color space                              : YUV
Chroma subsampling                       : 4:2:0
Bit depth                                : 8 bits
Scan type                                : Progressive
Bits/(Pixel*Frame)                       : 0.018
Stream size                              : 16.9 MiB (66%)
Writing library                          : x264 core 148 r2762+56 6284cf3 t_mod_Custom [8-bit@all X86_64]
Encoding settings                        : cabac=1 / ref=3 / deblock=1:0:0 / analyse=0x1:0x131 / me=umh / subme=9 / psy=1 / fade_compensate=0.00 / psy_rd=1.00:0.00 / mixed_ref=1 / me_range=32 / chroma_me=1 / trellis=1 / 8x8dct=0 / cqm=0 / deadzone=21,11 / fast_pskip=1 / chroma_qp_offset=-2 / threads=12 / lookahead_threads=1 / sliced_threads=0 / nr=0 / decimate=1 / interlaced=0 / bluray_compat=0 / constrained_intra=0 / fgo=0 / bframes=3 / b_pyramid=2 / b_adapt=1 / b_bias=0 / direct=1 / weightb=1 / open_gop=0 / weightp=2 / keyint=240 / keyint_min=1 / scenecut=40 / intra_refresh=0 / rc_lookahead=40 / rc=crf / mbtree=1 / crf=18.0000 / qcomp=0.60 / qpmin=0:0:0 / qpmax=69:69:69 / qpstep=4 / ip_ratio=1.40 / aq=1:1.00 / aq-sensitivity=10.00 / aq-factor=1.00:1.00:1.00 / aq2=0 / aq3=0
Encoded date                             : UTC 2017-05-09 03:51:17
Tagged date                              : UTC 2017-05-09 03:51:17

Audio
ID                                       : 2
Format                                   : AAC
Format/Info                              : Advanced Audio Codec
Format profile                           : LC
Codec ID                                 : 40
Duration                                 : 6 min 3 s
Bit rate mode                            : Variable
Bit rate                                 : 199 kb/s
Maximum bit rate                         : 253 kb/s
Channel(s)                               : 2 channels
Channel positions                        : Front: L R
Sampling rate                            : 48.0 kHz
Frame rate                               : 46.875 FPS (1024 spf)
Compression mode                         : Lossy
Stream size                              : 8.61 MiB (34%)
Language                                 : Japanese
Encoded date                             : UTC 2017-05-09 03:50:24
Tagged date                              : UTC 2017-05-09 03:51:17

Other Files in this Torrent
Specials (Unsubbed)/Mob Psycho 100 - SP5 (BD 1280x720 x264 AAC).mp4
beta
Anime DDL+NZB mirror
Current Time: 01/12/2021 12:21



About/FAQs

Discord