[SeiyaAnon] Mob Psycho 100 - 08.mkv


File Size498.5 MB (522,715,430 bytes)
DownloadClickNUpload | Go4Up | Jheberg | MultiUp
  • ClickNupload
  • Fichier
  • Filerio
  • Free
  • Fufox
  • HugeFiles
  • Mightyupload
  • ToutBox
  • Turbobit
  • UpToBox
  • Uplea
  • UploadBaz
  • Uploadable
  • Uploaded
  • Uppit
  • Userscloud
| OpenLoad | SolidFiles
Sendspace: Part1, Part2
HashesCRC32: 1ED8D2A7, MD5: 7079963190F598DEDF43211B638A237B, SHA1: ED7F2B897361BB024AE057CDDF4A38722F048F7A, SHA256: E1BAE9B22D8B4D9C7EE47B1801B4ACB3B5EFD2861C4ABECE43D1CE7A4E35CE65, ED2K: 5E0176FDD1BC927263FB6DC61E9ED562
Screenshots
screenshotscreenshotscreenshotscreenshotscreenshot
SubtitlesAll Attachments | und [ASS]
Additional Info
General
Unique ID                                : 239976089307374652148573097150602947228 (0xB489B6B0ADBA3D549618B955E6CA2A9C)
Complete name                            : [SeiyaAnon] Mob Psycho 100 - 08.mkv
Format                                   : Matroska
Format version                           : Version 4 / Version 2
File size                                : 499 MiB
Duration                                 : 24 min 11 s
Overall bit rate                         : 2 882 kb/s
Encoded date                             : UTC 2017-07-09 23:18:35
Writing application                      : mkvmerge v13.0.0 ('The Juggler') 64bit
Writing library                          : libebml v1.3.4 + libmatroska v1.4.5

Video
ID                                       : 1
Format                                   : AVC
Format/Info                              : Advanced Video Codec
Format profile                           : Main@L4.1
Format settings, CABAC                   : Yes
Format settings, ReFrames                : 4 frames
Codec ID                                 : V_MPEG4/ISO/AVC
Duration                                 : 24 min 11 s
Bit rate                                 : 2 664 kb/s
Width                                    : 1 280 pixels
Height                                   : 720 pixels
Display aspect ratio                     : 16:9
Frame rate mode                          : Constant
Frame rate                               : 23.976 (24000/1001) FPS
Color space                              : YUV
Chroma subsampling                       : 4:2:0
Bit depth                                : 8 bits
Scan type                                : Progressive
Bits/(Pixel*Frame)                       : 0.121
Stream size                              : 461 MiB (92%)
Writing library                          : x264 core 148 r2762+56 6284cf3 t_mod_Custom [8-bit@all X86_64]
Encoding settings                        : cabac=1 / ref=3 / deblock=1:0:0 / analyse=0x1:0x131 / me=umh / subme=9 / psy=1 / fade_compensate=0.00 / psy_rd=1.00:0.00 / mixed_ref=1 / me_range=32 / chroma_me=1 / trellis=1 / 8x8dct=0 / cqm=0 / deadzone=21,11 / fast_pskip=1 / chroma_qp_offset=-2 / threads=12 / lookahead_threads=1 / sliced_threads=0 / nr=0 / decimate=1 / interlaced=0 / bluray_compat=0 / constrained_intra=0 / fgo=0 / bframes=3 / b_pyramid=2 / b_adapt=1 / b_bias=0 / direct=1 / weightb=1 / open_gop=0 / weightp=2 / keyint=240 / keyint_min=1 / scenecut=40 / intra_refresh=0 / rc_lookahead=40 / rc=crf / mbtree=1 / crf=18.0000 / qcomp=0.60 / qpmin=0:0:0 / qpmax=69:69:69 / qpstep=4 / ip_ratio=1.40 / aq=1:1.00 / aq-sensitivity=10.00 / aq-factor=1.00:1.00:1.00 / aq2=0 / aq3=0
Default                                  : Yes
Forced                                   : No

Audio
ID                                       : 2
Format                                   : AAC
Format/Info                              : Advanced Audio Codec
Format profile                           : LC
Codec ID                                 : A_AAC
Duration                                 : 24 min 11 s
Bit rate                                 : 215 kb/s
Channel(s)                               : 2 channels
Channel positions                        : Front: L R
Sampling rate                            : 48.0 kHz
Frame rate                               : 46.875 FPS (1024 spf)
Compression mode                         : Lossy
Delay relative to video                  : -83 ms
Stream size                              : 37.2 MiB (7%)
Language                                 : Japanese
Default                                  : Yes
Forced                                   : No

Text
ID                                       : 3
Format                                   : ASS
Codec ID                                 : S_TEXT/ASS
Codec ID/Info                            : Advanced Sub Station Alpha
Duration                                 : 24 min 9 s
Bit rate                                 : 130 b/s
Count of elements                        : 441
Compression mode                         : Lossless
Stream size                              : 23.0 KiB (0%)
Default                                  : Yes
Forced                                   : No

Other Files in this Torrent
[SeiyaAnon] Mob Psycho 100 - 08.mkv
beta
Anime DDL+NZB mirror
Current Time: 22/01/2021 10:43



About/FAQs