[SeiyaAnon] Mob Psycho 100 - 01.mkv


File Size535.4 MB (561,377,148 bytes)
DownloadClickNUpload | Go4Up | Jheberg | MultiUp
  • ClickNupload
  • Fichier
  • Filerio
  • Free
  • Fufox
  • HugeFiles
  • Mightyupload
  • ToutBox
  • Turbobit
  • UpToBox
  • Uplea
  • UploadBaz
  • Uploadable
  • Uploaded
  • Uppit
  • Userscloud
| OpenLoad
Sendspace: Part1, Part2
SolidFiles: Part1, Part2
HashesCRC32: 4CBEF28C, MD5: 7B2A7D9167B44C781ED9E2F9479B29A0, SHA1: BB1EB743A675F6FC093C4F99FD48AB82694199EF, SHA256: 6F6238B7BEF81B29DE33876784C96229C233EDFDF43C1617E1FCFB3D39DC8F34, ED2K: 42AB26D80257C70206B0D22864083493
Screenshots
screenshotscreenshotscreenshotscreenshotscreenshot
SubtitlesAll Attachments | und [ASS]
Additional Info
General
Unique ID                                : 219848451076575753425280948808345736933 (0xA56545820B1444AFADBFB808DA2856E5)
Complete name                            : [SeiyaAnon] Mob Psycho 100 - 01.mkv
Format                                   : Matroska
Format version                           : Version 4 / Version 2
File size                                : 535 MiB
Duration                                 : 24 min 12 s
Overall bit rate                         : 3 093 kb/s
Encoded date                             : UTC 2017-07-09 22:37:51
Writing application                      : mkvmerge v13.0.0 ('The Juggler') 64bit
Writing library                          : libebml v1.3.4 + libmatroska v1.4.5

Video
ID                                       : 2
Format                                   : AVC
Format/Info                              : Advanced Video Codec
Format profile                           : Main@L4.1
Format settings, CABAC                   : Yes
Format settings, ReFrames                : 4 frames
Codec ID                                 : V_MPEG4/ISO/AVC
Duration                                 : 24 min 11 s
Bit rate                                 : 2 874 kb/s
Width                                    : 1 280 pixels
Height                                   : 720 pixels
Display aspect ratio                     : 16:9
Frame rate mode                          : Constant
Frame rate                               : 23.976 (24000/1001) FPS
Color space                              : YUV
Chroma subsampling                       : 4:2:0
Bit depth                                : 8 bits
Scan type                                : Progressive
Bits/(Pixel*Frame)                       : 0.130
Stream size                              : 497 MiB (93%)
Writing library                          : x264 core 148 r2762+56 6284cf3 t_mod_Custom [8-bit@all X86_64]
Encoding settings                        : cabac=1 / ref=3 / deblock=1:0:0 / analyse=0x1:0x131 / me=umh / subme=9 / psy=1 / fade_compensate=0.00 / psy_rd=1.00:0.00 / mixed_ref=1 / me_range=32 / chroma_me=1 / trellis=1 / 8x8dct=0 / cqm=0 / deadzone=21,11 / fast_pskip=1 / chroma_qp_offset=-2 / threads=12 / lookahead_threads=1 / sliced_threads=0 / nr=0 / decimate=1 / interlaced=0 / bluray_compat=0 / constrained_intra=0 / fgo=0 / bframes=3 / b_pyramid=2 / b_adapt=1 / b_bias=0 / direct=1 / weightb=1 / open_gop=0 / weightp=2 / keyint=240 / keyint_min=1 / scenecut=40 / intra_refresh=0 / rc_lookahead=40 / rc=crf / mbtree=1 / crf=18.0000 / qcomp=0.60 / qpmin=0:0:0 / qpmax=69:69:69 / qpstep=4 / ip_ratio=1.40 / aq=1:1.00 / aq-sensitivity=10.00 / aq-factor=1.00:1.00:1.00 / aq2=0 / aq3=0
Default                                  : Yes
Forced                                   : No

Audio
ID                                       : 3
Format                                   : AAC
Format/Info                              : Advanced Audio Codec
Format profile                           : LC
Codec ID                                 : A_AAC
Duration                                 : 24 min 11 s
Bit rate                                 : 217 kb/s
Channel(s)                               : 2 channels
Channel positions                        : Front: L R
Sampling rate                            : 48.0 kHz
Frame rate                               : 46.875 FPS (1024 spf)
Compression mode                         : Lossy
Delay relative to video                  : -83 ms
Stream size                              : 37.5 MiB (7%)
Language                                 : Japanese
Default                                  : Yes
Forced                                   : No

Text
ID                                       : 1
Format                                   : ASS
Codec ID                                 : S_TEXT/ASS
Codec ID/Info                            : Advanced Sub Station Alpha
Duration                                 : 22 min 29 s
Bit rate                                 : 152 b/s
Count of elements                        : 448
Compression mode                         : Lossless
Stream size                              : 25.1 KiB (0%)
Default                                  : Yes
Forced                                   : No

Other Files in this Torrent
[SeiyaAnon] Mob Psycho 100 - 01.mkv
beta
Anime DDL+NZB mirror
Current Time: 01/03/2021 22:32



About/FAQs