[SpaceFish] Akame ga Kill! - 16 [BD][720p][AAC].mp4


File Size667.8 MB (700,200,783 bytes)
DownloadGo4Up | Jheberg | MultiUp
  • ClickNupload
  • Fichier
  • Filerio
  • Free
  • Fufox
  • HugeFiles
  • Mightyupload
  • ToutBox
  • Turbobit
  • UpToBox
  • Uplea
  • UploadBaz
  • Uploadable
  • Uploaded
  • Uppit
  • Userscloud
| OpenLoad | UsersCloud
Sendspace: Part1, Part2, Part3
SolidFiles: Part1, Part2
HashesCRC32: 632A99BD, MD5: 67414D17EE8EA627C2A91B9599C28FC3, SHA1: 248D000DC1AE87981377E4240EB79A990E64E206, SHA256: 5B26766DA94788DCCF4BE24FEDE76AE3877467CC0ECD789774FFB878DCB35EA8, ED2K: 84BEE686FA4BBD245A365D52227B533D
Screenshots
screenshotscreenshotscreenshotscreenshotscreenshot
Additional Info
General
Complete name                            : [SpaceFish] Akame ga Kill! - 16 [BD][720p][AAC].mp4
Format                                   : MPEG-4
Format profile                           : Base Media
Codec ID                                 : isom (isom/avc1/iso2)
File size                                : 668 MiB
Duration                                 : 23 min 41 s
Overall bit rate mode                    : Variable
Overall bit rate                         : 3 942 kb/s
Encoded date                             : UTC 2016-12-20 20:54:56
Tagged date                              : UTC 2016-12-20 20:54:56
Writing application                      : MkvToMp4 [www.mkvtomp4.ru] version 0.224 (x64)

Video
ID                                       : 1
Format                                   : AVC
Format/Info                              : Advanced Video Codec
Format profile                           : High@L4.1
Format settings, CABAC                   : Yes
Format settings, ReFrames                : 4 frames
Codec ID                                 : avc1
Codec ID/Info                            : Advanced Video Coding
Duration                                 : 23 min 40 s
Bit rate mode                            : Variable
Bit rate                                 : 3 656 kb/s
Maximum bit rate                         : 62.5 Mb/s
Width                                    : 1 280 pixels
Height                                   : 720 pixels
Display aspect ratio                     : 16:9
Frame rate mode                          : Constant
Frame rate                               : 23.976 (24000/1001) FPS
Color space                              : YUV
Chroma subsampling                       : 4:2:0
Bit depth                                : 8 bits
Scan type                                : Progressive
Bits/(Pixel*Frame)                       : 0.165
Stream size                              : 619 MiB (93%)
Writing library                          : x264 core 146 r2538 121396c
Encoding settings                        : cabac=1 / ref=4 / deblock=1:1:1 / analyse=0x3:0x133 / me=tesa / subme=11 / psy=1 / psy_rd=0.40:0.00 / mixed_ref=1 / me_range=24 / chroma_me=1 / trellis=2 / 8x8dct=1 / cqm=0 / deadzone=21,11 / fast_pskip=0 / chroma_qp_offset=-2 / threads=18 / lookahead_threads=4 / sliced_threads=0 / nr=0 / decimate=1 / interlaced=0 / bluray_compat=0 / constrained_intra=0 / bframes=16 / b_pyramid=0 / b_adapt=2 / b_bias=0 / direct=3 / weightb=1 / open_gop=0 / weightp=2 / keyint=240 / keyint_min=24 / scenecut=40 / intra_refresh=0 / rc_lookahead=60 / rc=crf / mbtree=1 / crf=13.5 / qcomp=0.60 / qpmin=0 / qpmax=69 / qpstep=4 / vbv_maxrate=62500 / vbv_bufsize=62500 / crf_max=0.0 / nal_hrd=vbr / filler=0 / ip_ratio=1.40 / aq=1:0.60
Language                                 : English
Encoded date                             : UTC 2016-12-20 20:54:56
Tagged date                              : UTC 2016-12-20 20:55:02

Audio
ID                                       : 2
Format                                   : AAC
Format/Info                              : Advanced Audio Codec
Format profile                           : LC
Codec ID                                 : 40
Duration                                 : 23 min 41 s
Bit rate mode                            : Variable
Bit rate                                 : 288 kb/s
Maximum bit rate                         : 411 kb/s
Channel(s)                               : 2 channels
Channel positions                        : Front: L R
Sampling rate                            : 48.0 kHz
Frame rate                               : 46.875 FPS (1024 spf)
Compression mode                         : Lossy
Stream size                              : 48.3 MiB (7%)
Title                                    : 2.0 AAC / 2.0 AAC
Language                                 : Japanese
Default                                  : Yes
Alternate group                          : 1
Encoded date                             : UTC 2016-12-20 20:55:01
Tagged date                              : UTC 2016-12-20 20:55:02

Other Files in this Torrent
[SpaceFish] Akame ga Kill! - 16 [BD][720p][AAC].mp4
beta
Anime DDL+NZB mirror
Current Time: 24/06/2024 04:48



About/FAQs

Discord