File Size814.9 MB (854,439,465 bytes)
DownloadClickNUpload | DropAPK | Free
MultiUp: Part1
  • BdUpload
  • DownAce
  • Fichier
  • FileCloud
  • Filerio
  • FilesCdn
  • IndiShare
  • Kbagi
  • Turbobit
  • UpToBox
  • Uppit
, Part2
  • BdUpload
  • DownAce
  • Fichier
  • FileCloud
  • Filerio
  • FilesCdn
  • IndiShare
  • Kbagi
  • Turbobit
  • UpToBox
  • Uppit

SolidFiles: Part1, Part2
ZippyShare: Part1, Part2
HashesCRC32: A91161CF, MD5: C6932CCAE152E663C268A1378F8DE164, SHA1: 02923DBF7C2AD9ACC812B1B70AA69E05DB6E6430, SHA256: EBB4E3864756C7DA15E79502C3DA5B020C564AEEEB9AEFD5CB90E1F36222E532, ED2K: 22047F8BF7C37EAFD33B27AA2E880F6E
Screenshots
screenshotscreenshotscreenshotscreenshotscreenshot
SubtitlesAll Attachments | Sajamba [eng, ASS]
Additional Info
General
Unique ID                                : 219246940951634205885448025128903941716 (0xA4F16CC4E58E4553411B8431A7989E54)
Complete name                            : [Senjou] S01SP07 - Koyomi Tea.mkv
Format                                   : Matroska
Format version                           : Version 4
File size                                : 815 MiB
Duration                                 : 12 min 12 s
Overall bit rate mode                    : Variable
Overall bit rate                         : 9 329 kb/s
Movie name                               : EP7 «Koyomi Tea»
Writing application                      : mkvmerge v56.1.0 ('My Friend') 64-bit
Writing library                          : libebml v1.4.2 + libmatroska v1.6.4
Attachments                              : Cabin-Bold.ttf / Cabin-BoldItalic.ttf / calibril.ttf / segoepr.ttf / ufonts.com_levenim-mt.ttf / 28848_PapyrusLETPlain-1.0.ttf

Video
ID                                       : 1
Format                                   : HEVC
Format/Info                              : High Efficiency Video Coding
Format profile                           : Main 10@L4@Main
Codec ID                                 : V_MPEGH/ISO/HEVC
Duration                                 : 12 min 11 s
Bit rate                                 : 7 926 kb/s
Width                                    : 1 920 pixels
Height                                   : 1 080 pixels
Display aspect ratio                     : 16:9
Frame rate mode                          : Constant
Frame rate                               : 23.976 (24000/1001) FPS
Color space                              : YUV
Chroma subsampling                       : 4:2:0
Bit depth                                : 10 bits
Bits/(Pixel*Frame)                       : 0.159
Stream size                              : 692 MiB (85%)
Title                                    : BDRip by DeadNews
Writing library                          : x265 3.0_Au+21-bac0e1acb874:[Linux][GCC 8.2.1][64 bit] 10bit
Encoding settings                        : cpuid=1049583 / frame-threads=2 / wpp / no-pmode / no-pme / no-psnr / no-ssim / log-level=2 / input-csp=1 / input-res=1920x1080 / interlace=0 / total-frames=17568 / level-idc=0 / high-tier=1 / uhd-bd=0 / ref=4 / no-allow-non-conformance / no-repeat-headers / annexb / no-aud / no-hrd / info / hash=0 / no-temporal-layers / open-gop / min-keyint=23 / keyint=250 / gop-lookahead=8 / bframes=10 / b-adapt=2 / b-pyramid / bframe-bias=0 / rc-lookahead=160 / lookahead-slices=1 / scenecut=40 / radl=0 / no-splice / no-intra-refresh / ctu=64 / min-cu-size=8 / no-rect / no-amp / max-tu-size=32 / tu-inter-depth=2 / tu-intra-depth=2 / limit-tu=0 / rdoq-level=2 / dynamic-rd=0.00 / no-ssim-rd / signhide / no-tskip / nr-intra=0 / nr-inter=0 / no-constrained-intra / strong-intra-smoothing / max-merge=2 / limit-refs=3 / no-limit-modes / me=3 / subme=5 / merange=48 / temporal-mvp / weightp / weightb / no-analyze-src-pics / deblock=1:-1 / no-sao / no-sao-non-deblock / rd=4 / no-early-skip / no-rskip / no-fast-intra / no-tskip-fast / no-cu-lossless / no-b-intra / no-splitrd-skip / rdpenalty=0 / psy-rd=2.00 / psy-rdoq=2.00 / no-rd-refine / no-lossless / cbqpoffs=-2 / crqpoffs=-2 / rc=crf / crf=14.8 / qcomp=0.72 / qpstep=4 / stats-write=0 / stats-read=0 / ipratio=1.40 / pbratio=1.30 / aq-mode=3 / aq-strength=0.85 / no-cutree / zone-count=2 / zones: / start-frame=0 / end-frame=2183 / bitrate-factor=0.650000 / zones: / start-frame=15372 / end-frame=17568 / bitrate-factor=0.670000 / no-strict-cbr / qg-size=32 / no-rc-grain / qpmax=69 / qpmin=0 / no-const-vbv / sar=1 / overscan=0 / videoformat=5 / range=0 / colorprim=1 / transfer=1 / colormatrix=1 / chromaloc=0 / display-window=0 / max-cll=0,0 / min-luma=0 / max-luma=1023 / log2-max-poc-lsb=8 / vui-timing-info / vui-hrd-info / slices=1 / no-opt-qp-pps / no-opt-ref-list-length-pps / no-multi-pass-opt-rps / scenecut-bias=0.05 / no-opt-cu-delta-qp / no-aq-motion / no-hdr / no-hdr-opt / no-dhdr10-opt / no-idr-recovery-sei / analysis-reuse-level=5 / scale-factor=0 / refine-intra=0 / refine-inter=0 / refine-mv=0 / refine-ctu-distortion=0 / no-limit-sao / ctu-info=0 / no-lowpass-dct / refine-analysis-type=0 / copy-pic=1 / max-ausize-factor=1.0 / no-dynamic-refine / no-single-sei / no-hevc-aq / no-svt / qp-adaptation-range=1.00
Language                                 : Japanese
Default                                  : Yes
Forced                                   : No
Color range                              : Limited
Color primaries                          : BT.709
Transfer characteristics                 : BT.709
Matrix coefficients                      : BT.709

Audio
ID                                       : 2
Format                                   : FLAC
Format/Info                              : Free Lossless Audio Codec
Codec ID                                 : A_FLAC
Duration                                 : 12 min 12 s
Bit rate mode                            : Variable
Bit rate                                 : 1 387 kb/s
Channel(s)                               : 2 channels
Channel layout                           : L R
Sampling rate                            : 48.0 kHz
Frame rate                               : 10.417 FPS (4608 SPF)
Bit depth                                : 24 bits
Compression mode                         : Lossless
Stream size                              : 121 MiB (15%)
Title                                    : LPCM->FLAC
Writing library                          : Lavf58.20.100
Language                                 : Japanese
Default                                  : Yes
Forced                                   : No

Text
ID                                       : 3
Format                                   : ASS
Codec ID                                 : S_TEXT/ASS
Codec ID/Info                            : Advanced Sub Station Alpha
Duration                                 : 12 min 4 s
Bit rate                                 : 221 b/s
Count of elements                        : 267
Compression mode                         : Lossless
Stream size                              : 19.6 KiB (0%)
Title                                    : Sajamba
Language                                 : English
Default                                  : Yes
Forced                                   : No

Menu
00:00:00.000                             : OP
00:01:31.091                             : Title
00:01:35.095                             : Chapter 1
00:01:38.098                             : Chapter 2
00:04:00.615                             : Chapter 3
00:06:48.699                             : Chapter 4
00:09:05.836                             : Chapter 5
00:10:41.140                             : ED

Other Files in this Torrent
[Senjou] S01SP07 - Koyomi Tea.mkv
beta
Anime DDL+NZB mirror
Current Time: 19/07/2024 17:24



About/FAQs

Discord