File Size729.8 MB (765,231,534 bytes)
DownloadClickNUpload | DropAPK | Free
MultiUp: Part1
  • BdUpload
  • DownAce
  • Fichier
  • FileCloud
  • Filerio
  • FilesCdn
  • IndiShare
  • Kbagi
  • Turbobit
  • UpToBox
  • Uppit
, Part2
  • BdUpload
  • DownAce
  • Fichier
  • FileCloud
  • Filerio
  • FilesCdn
  • IndiShare
  • Kbagi
  • Turbobit
  • UpToBox
  • Uppit

SolidFiles: Part1, Part2
ZippyShare: Part1, Part2
HashesCRC32: 906E3FDB, MD5: 37DA153B9D9EF790E8756A05EC271D67, SHA1: EF220C3528114190939ACF5F933E693C26B95990, SHA256: 074A7FE57AEEF6574B12F2E135A5CB0F6C426017B12DC2A7891EF01F04D011AC, ED2K: 60A0D8233727DDDD9249433945C95EE2
Screenshots
screenshotscreenshotscreenshotscreenshotscreenshot
SubtitlesAll Attachments | Commie [eng, ASS]
Additional Info
General
Unique ID                                : 11777362664300189179975713155622292779 (0x8DC3CCF8F42FD102B29D1605E96CD2B)
Complete name                            : [Senjou] S01SP01 - Koyomi Stone.mkv
Format                                   : Matroska
Format version                           : Version 4
File size                                : 730 MiB
Duration                                 : 13 min 44 s
Overall bit rate mode                    : Variable
Overall bit rate                         : 7 423 kb/s
Movie name                               : EP1 «Koyomi Stone»
Writing application                      : mkvmerge v56.1.0 ('My Friend') 64-bit
Writing library                          : libebml v1.4.2 + libmatroska v1.6.4
Attachments                              : IwaMinPro-Lt-Madoka.ttf / Montara-Gothic_0.otf / Montara-Italic.otf / Aquifer.ttf / Arkona-Regular-Regular.ttf / BirchStd.otf

Video
ID                                       : 1
Format                                   : HEVC
Format/Info                              : High Efficiency Video Coding
Format profile                           : Main 10@L4@Main
Codec ID                                 : V_MPEGH/ISO/HEVC
Duration                                 : 13 min 43 s
Bit rate                                 : 6 078 kb/s
Width                                    : 1 920 pixels
Height                                   : 1 080 pixels
Display aspect ratio                     : 16:9
Frame rate mode                          : Constant
Frame rate                               : 23.976 (24000/1001) FPS
Color space                              : YUV
Chroma subsampling                       : 4:2:0
Bit depth                                : 10 bits
Bits/(Pixel*Frame)                       : 0.122
Stream size                              : 596 MiB (82%)
Title                                    : BDRip by DeadNews
Writing library                          : x265 3.0_Au+21-bac0e1acb874:[Linux][GCC 8.2.1][64 bit] 10bit
Encoding settings                        : cpuid=1049583 / frame-threads=2 / wpp / no-pmode / no-pme / no-psnr / no-ssim / log-level=2 / input-csp=1 / input-res=1920x1080 / interlace=0 / total-frames=19772 / level-idc=0 / high-tier=1 / uhd-bd=0 / ref=4 / no-allow-non-conformance / no-repeat-headers / annexb / no-aud / no-hrd / info / hash=0 / no-temporal-layers / open-gop / min-keyint=23 / keyint=250 / gop-lookahead=8 / bframes=10 / b-adapt=2 / b-pyramid / bframe-bias=0 / rc-lookahead=160 / lookahead-slices=1 / scenecut=40 / radl=0 / no-splice / no-intra-refresh / ctu=64 / min-cu-size=8 / no-rect / no-amp / max-tu-size=32 / tu-inter-depth=2 / tu-intra-depth=2 / limit-tu=0 / rdoq-level=2 / dynamic-rd=0.00 / no-ssim-rd / signhide / no-tskip / nr-intra=0 / nr-inter=0 / no-constrained-intra / strong-intra-smoothing / max-merge=2 / limit-refs=3 / no-limit-modes / me=3 / subme=5 / merange=48 / temporal-mvp / weightp / weightb / no-analyze-src-pics / deblock=1:-1 / no-sao / no-sao-non-deblock / rd=4 / no-early-skip / no-rskip / no-fast-intra / no-tskip-fast / no-cu-lossless / no-b-intra / no-splitrd-skip / rdpenalty=0 / psy-rd=2.00 / psy-rdoq=2.00 / no-rd-refine / no-lossless / cbqpoffs=-2 / crqpoffs=-2 / rc=crf / crf=14.8 / qcomp=0.72 / qpstep=4 / stats-write=0 / stats-read=0 / ipratio=1.40 / pbratio=1.30 / aq-mode=3 / aq-strength=0.85 / no-cutree / zone-count=3 / zones: / start-frame=0 / end-frame=2183 / bitrate-factor=1.000000 / zones: / start-frame=12616 / end-frame=12816 / bitrate-factor=1.600000 / zones: / start-frame=17576 / end-frame=19772 / bitrate-factor=0.670000 / no-strict-cbr / qg-size=32 / no-rc-grain / qpmax=69 / qpmin=0 / no-const-vbv / sar=1 / overscan=0 / videoformat=5 / range=0 / colorprim=1 / transfer=1 / colormatrix=1 / chromaloc=0 / display-window=0 / max-cll=0,0 / min-luma=0 / max-luma=1023 / log2-max-poc-lsb=8 / vui-timing-info / vui-hrd-info / slices=1 / no-opt-qp-pps / no-opt-ref-list-length-pps / no-multi-pass-opt-rps / scenecut-bias=0.05 / no-opt-cu-delta-qp / no-aq-motion / no-hdr / no-hdr-opt / no-dhdr10-opt / no-idr-recovery-sei / analysis-reuse-level=5 / scale-factor=0 / refine-intra=0 / refine-inter=0 / refine-mv=0 / refine-ctu-distortion=0 / no-limit-sao / ctu-info=0 / no-lowpass-dct / refine-analysis-type=0 / copy-pic=1 / max-ausize-factor=1.0 / no-dynamic-refine / no-single-sei / no-hevc-aq / no-svt / qp-adaptation-range=1.00
Language                                 : Japanese
Default                                  : Yes
Forced                                   : No
Color range                              : Limited
Color primaries                          : BT.709
Transfer characteristics                 : BT.709
Matrix coefficients                      : BT.709

Audio
ID                                       : 2
Format                                   : FLAC
Format/Info                              : Free Lossless Audio Codec
Codec ID                                 : A_FLAC
Duration                                 : 13 min 44 s
Bit rate mode                            : Variable
Bit rate                                 : 1 345 kb/s
Channel(s)                               : 2 channels
Channel layout                           : L R
Sampling rate                            : 48.0 kHz
Frame rate                               : 10.418 FPS (4607 SPF)
Bit depth                                : 24 bits
Compression mode                         : Lossless
Stream size                              : 132 MiB (18%)
Title                                    : LPCM->FLAC
Writing library                          : Lavf58.20.100
Language                                 : Japanese
Default                                  : Yes
Forced                                   : No

Text
ID                                       : 3
Format                                   : ASS
Codec ID                                 : S_TEXT/ASS
Codec ID/Info                            : Advanced Sub Station Alpha
Duration                                 : 13 min 37 s
Bit rate                                 : 205 b/s
Count of elements                        : 281
Compression mode                         : Lossless
Stream size                              : 20.6 KiB (0%)
Title                                    : Commie
Language                                 : English
Default                                  : Yes
Forced                                   : No

Menu
00:00:00.000                             : OP
00:01:31.091                             : Title
00:01:35.095                             : Chapter 1
00:01:38.098                             : Chapter 2
00:02:40.201                             : Chapter 3
00:04:24.931                             : Chapter 4
00:07:45.798                             : Chapter 5
00:10:45.311                             : Chapter 6
00:12:13.065                             : ED

Other Files in this Torrent
[Senjou] S01SP01 - Koyomi Stone.mkv
beta
Anime DDL+NZB mirror
Current Time: 14/07/2024 20:06



About/FAQs

Discord