[Seicher] Golden Boy - 05v2 [DVD x264 10bit].mkv


File Size553.4 MB (580,250,381 bytes)
DownloadClickNUpload | Jheberg
MultiUp: Part1
  • BdUpload
  • DownAce
  • Fichier
  • FileCloud
  • Filerio
  • FilesCdn
  • IndiShare
  • Kbagi
  • Turbobit
  • UpToBox
  • Uppit
, Part2
  • BdUpload
  • DownAce
  • Fichier
  • FileCloud
  • Filerio
  • FilesCdn
  • IndiShare
  • Kbagi
  • Turbobit
  • UpToBox
  • Uppit

Sendspace: Part1, Part2
SolidFiles: Part1, Part2
ZippyShare: Part1, Part2
HashesCRC32: 8E3F169B, MD5: 8F1C123A967BB17FCFD80E20915CBC1E, SHA1: BF1D59FB78D2225BA168954C02BEF5D8BA56817E, SHA256: 34B40378BD59CEADA0B8E21CC03D89DBF5E0A4C25CC2A3AE31464211728287F8, ED2K: AEC31B0A14CC3640E08934B2638D600B
Screenshots
screenshotscreenshotscreenshotscreenshotscreenshot
SubtitlesAll Attachments | eng [ASS], por [ASS]
Additional Info
General
Unique ID                                : 250842249702440261025286422614656343911 (0xBCB675C2AFE40F228A43A2EE341EDF67)
Complete name                            : [Seicher] Golden Boy - 05v2 [DVD x264 10bit].mkv
Format                                   : Matroska
Format version                           : Version 4
File size                                : 553 MiB
Duration                                 : 28 min 37 s
Overall bit rate                         : 2 703 kb/s
Encoded date                             : UTC 2019-11-13 23:40:22
Writing application                      : mkvmerge v40.0.0 ('Old Town Road + Pony') 64-bit
Writing library                          : libebml v1.3.9 + libmatroska v1.5.2
Attachments                              : A-OTF-JUN34PRO-MEDIUM.OTF / A-OTF-MIDASHIGOPRO-MB31.OTF / ASUL-BOLD.TTF / GANDHISANS-BOLD_1.OTF

Video
ID                                       : 1
Format                                   : AVC
Format/Info                              : Advanced Video Codec
Format profile                           : High 10@L4
Format settings                          : CABAC / 16 Ref Frames
Format settings, CABAC                   : Yes
Format settings, ReFrames                : 16 frames
Codec ID                                 : V_MPEG4/ISO/AVC
Duration                                 : 28 min 37 s
Bit rate                                 : 2 469 kb/s
Width                                    : 720 pixels
Height                                   : 540 pixels
Display aspect ratio                     : 4:3
Frame rate mode                          : Constant
Frame rate                               : 23.976 (24000/1001) FPS
Color space                              : YUV
Chroma subsampling                       : 4:2:0
Bit depth                                : 10 bits
Scan type                                : Progressive
Bits/(Pixel*Frame)                       : 0.265
Stream size                              : 505 MiB (91%)
Writing library                          : x264 core 157 r2969 d4099dd
Encoding settings                        : cabac=1 / ref=16 / deblock=1:-1:-1 / analyse=0x3:0x113 / me=umh / subme=10 / psy=1 / psy_rd=0.70:0.10 / mixed_ref=1 / me_range=32 / chroma_me=1 / trellis=2 / 8x8dct=1 / cqm=0 / deadzone=21,11 / fast_pskip=0 / chroma_qp_offset=-3 / threads=17 / lookahead_threads=4 / sliced_threads=0 / nr=0 / decimate=0 / interlaced=0 / bluray_compat=0 / constrained_intra=0 / bframes=10 / b_pyramid=2 / b_adapt=2 / b_bias=0 / direct=3 / weightb=1 / open_gop=0 / weightp=2 / keyint=240 / keyint_min=24 / scenecut=40 / intra_refresh=0 / rc_lookahead=48 / rc=crf / mbtree=1 / crf=13.0 / qcomp=0.75 / qpmin=0 / qpmax=81 / qpstep=4 / ip_ratio=1.40 / aq=3:0.70
Default                                  : Yes
Forced                                   : No
Color range                              : Limited
Matrix coefficients                      : BT.601

Audio
ID                                       : 2
Format                                   : AC-3
Format/Info                              : Audio Coding 3
Commercial name                          : Dolby Digital
Codec ID                                 : A_AC3
Duration                                 : 28 min 37 s
Bit rate mode                            : Constant
Bit rate                                 : 192 kb/s
Channel(s)                               : 2 channels
Channel layout                           : L R
Sampling rate                            : 48.0 kHz
Frame rate                               : 31.250 FPS (1536 SPF)
Bit depth                                : 16 bits
Compression mode                         : Lossy
Stream size                              : 39.3 MiB (7%)
Language                                 : Japanese
Service kind                             : Complete Main
Default                                  : Yes
Forced                                   : No

Text #1
ID                                       : 3
Format                                   : ASS
Codec ID                                 : S_TEXT/ASS
Codec ID/Info                            : Advanced Sub Station Alpha
Duration                                 : 27 min 52 s
Bit rate                                 : 203 b/s
Count of elements                        : 483
Compression mode                         : Lossless
Stream size                              : 41.5 KiB (0%)
Language                                 : English
Default                                  : No
Forced                                   : No

Text #2
ID                                       : 4
Format                                   : ASS
Codec ID                                 : S_TEXT/ASS
Codec ID/Info                            : Advanced Sub Station Alpha
Duration                                 : 27 min 52 s
Bit rate                                 : 203 b/s
Count of elements                        : 461
Compression mode                         : Lossless
Stream size                              : 41.6 KiB (0%)
Language                                 : Portuguese
Default                                  : Yes
Forced                                   : No

Menu
00:00:00.000                             : :Credits
00:00:11.637                             : :Intro
00:01:08.690                             : :OP
00:02:56.819                             : :Episode
00:24:27.117                             : :ED
00:28:01.346                             : :Prev

Other Files in this Torrent
[Seicher] Golden Boy - 05v2 [DVD x264 10bit].mkv
beta
Anime DDL+NZB mirror
Current Time: 06/03/2021 01:48



About/FAQs