[Seicher] Golden Boy - 01v2 [DVD x264 10bit].mkv


File Size468.7 MB (491,445,755 bytes)
DownloadClickNUpload | Jheberg | MultiUp
  • BdUpload
  • DownAce
  • Fichier
  • FileCloud
  • Filerio
  • FilesCdn
  • IndiShare
  • Kbagi
  • Turbobit
  • UpToBox
  • Uppit
| SolidFiles | ZippyShare
Sendspace: Part1, Part2
HashesCRC32: 8C27A323, MD5: 0D1204B5E1C75A1180F98B831D5EB9EB, SHA1: 7019B1297612836A892F621301B214E93884E141, SHA256: 6F42033DC9F977EFD8A35CD4673C64FE9843BD6B06430EA8DAF56128993EB59F, ED2K: 3FE6B660DBF9ADB8C507C541A280C619
Screenshots
screenshotscreenshotscreenshotscreenshotscreenshot
SubtitlesAll Attachments | eng [ASS], por [ASS]
Additional Info
General
Unique ID                                : 278460808327314395872290132433338821252 (0xD17D99D535E726D3973C9C1FB27AEA84)
Complete name                            : [Seicher] Golden Boy - 01v2 [DVD x264 10bit].mkv
Format                                   : Matroska
Format version                           : Version 4
File size                                : 469 MiB
Duration                                 : 28 min 54 s
Overall bit rate                         : 2 267 kb/s
Encoded date                             : UTC 2019-11-13 23:38:19
Writing application                      : mkvmerge v40.0.0 ('Old Town Road + Pony') 64-bit
Writing library                          : libebml v1.3.9 + libmatroska v1.5.2
Attachments                              : ALAMENDRO.TTF / A-OTF-JUN34PRO-MEDIUM.OTF / ASUL-BOLD.TTF / GANDHISANS-BOLD_1.OTF / GOSMICKSANSBOLD.TTF

Video
ID                                       : 1
Format                                   : AVC
Format/Info                              : Advanced Video Codec
Format profile                           : High 10@L4
Format settings                          : CABAC / 16 Ref Frames
Format settings, CABAC                   : Yes
Format settings, ReFrames                : 16 frames
Codec ID                                 : V_MPEG4/ISO/AVC
Duration                                 : 28 min 54 s
Bit rate                                 : 2 049 kb/s
Width                                    : 720 pixels
Height                                   : 540 pixels
Display aspect ratio                     : 4:3
Frame rate mode                          : Constant
Frame rate                               : 23.976 (24000/1001) FPS
Color space                              : YUV
Chroma subsampling                       : 4:2:0
Bit depth                                : 10 bits
Scan type                                : Progressive
Bits/(Pixel*Frame)                       : 0.220
Stream size                              : 424 MiB (90%)
Writing library                          : x264 core 157 r2969 d4099dd
Encoding settings                        : cabac=1 / ref=16 / deblock=1:-1:-1 / analyse=0x3:0x113 / me=umh / subme=10 / psy=1 / psy_rd=0.70:0.10 / mixed_ref=1 / me_range=32 / chroma_me=1 / trellis=2 / 8x8dct=1 / cqm=0 / deadzone=21,11 / fast_pskip=0 / chroma_qp_offset=-3 / threads=17 / lookahead_threads=4 / sliced_threads=0 / nr=0 / decimate=0 / interlaced=0 / bluray_compat=0 / constrained_intra=0 / bframes=10 / b_pyramid=2 / b_adapt=2 / b_bias=0 / direct=3 / weightb=1 / open_gop=0 / weightp=2 / keyint=240 / keyint_min=24 / scenecut=40 / intra_refresh=0 / rc_lookahead=48 / rc=crf / mbtree=1 / crf=13.0 / qcomp=0.75 / qpmin=0 / qpmax=81 / qpstep=4 / ip_ratio=1.40 / aq=3:0.70
Default                                  : Yes
Forced                                   : No
Color range                              : Limited
Matrix coefficients                      : BT.601

Audio
ID                                       : 2
Format                                   : AC-3
Format/Info                              : Audio Coding 3
Commercial name                          : Dolby Digital
Codec ID                                 : A_AC3
Duration                                 : 28 min 54 s
Bit rate mode                            : Constant
Bit rate                                 : 192 kb/s
Channel(s)                               : 2 channels
Channel layout                           : L R
Sampling rate                            : 48.0 kHz
Frame rate                               : 31.250 FPS (1536 SPF)
Bit depth                                : 16 bits
Compression mode                         : Lossy
Stream size                              : 39.7 MiB (8%)
Language                                 : Japanese
Service kind                             : Complete Main
Default                                  : Yes
Forced                                   : No

Text #1
ID                                       : 3
Format                                   : ASS
Codec ID                                 : S_TEXT/ASS
Codec ID/Info                            : Advanced Sub Station Alpha
Duration                                 : 28 min 38 s
Bit rate                                 : 326 b/s
Count of elements                        : 728
Compression mode                         : Lossless
Stream size                              : 68.4 KiB (0%)
Language                                 : English
Default                                  : No
Forced                                   : No

Text #2
ID                                       : 4
Format                                   : ASS
Codec ID                                 : S_TEXT/ASS
Codec ID/Info                            : Advanced Sub Station Alpha
Duration                                 : 28 min 17 s
Bit rate                                 : 326 b/s
Count of elements                        : 694
Compression mode                         : Lossless
Stream size                              : 67.6 KiB (0%)
Language                                 : Portuguese
Default                                  : Yes
Forced                                   : No

Menu
00:00:00.000                             : :Credits
00:00:11.637                             : :Intro
00:00:58.140                             : :OP
00:02:46.139                             : :Episode
00:25:20.167                             : :ED

Other Files in this Torrent
[Seicher] Golden Boy - 01v2 [DVD x264 10bit].mkv
beta
Anime DDL+NZB mirror
Current Time: 06/03/2021 01:51



About/FAQs