[Seicher] Golden Boy - 06v2 [DVD x264 10bit].mkv


File Size455.6 MB (477,712,130 bytes)
DownloadClickNUpload | Jheberg | MultiUp
  • BdUpload
  • DownAce
  • Fichier
  • FileCloud
  • Filerio
  • FilesCdn
  • IndiShare
  • Kbagi
  • Turbobit
  • UpToBox
  • Uppit
| SolidFiles | ZippyShare
Sendspace: Part1, Part2
HashesCRC32: D1F1AEFF, MD5: 9516A6DDE8E137DFB3862E765C20E2C9, SHA1: 38E99AE0B4F9BEC3EB06999888A86322E01A819E, SHA256: 883E27231150B5D10905E2222D81FF19D0793F32CAAA0E5325BF8847CF5CAFA6, ED2K: 63BE2691A078F80EA9729C77351C33D1
Screenshots
screenshotscreenshotscreenshotscreenshotscreenshot
SubtitlesAll Attachments | eng [ASS], por [ASS]
Additional Info
General
Unique ID                                : 198014000097609908644478991768882566576 (0x94F81BF5D0A03EFC334BC7887AA4D5B0)
Complete name                            : [Seicher] Golden Boy - 06v2 [DVD x264 10bit].mkv
Format                                   : Matroska
Format version                           : Version 4
File size                                : 456 MiB
Duration                                 : 29 min 6 s
Overall bit rate                         : 2 188 kb/s
Encoded date                             : UTC 2019-11-13 23:40:34
Writing application                      : mkvmerge v40.0.0 ('Old Town Road + Pony') 64-bit
Writing library                          : libebml v1.3.9 + libmatroska v1.5.2
Attachments                              : ALAMENDRO.TTF / A-OTF-JUN34PRO-MEDIUM.OTF / A-OTF-MUSASOSTD-REGULAR.OTF / ASUL-BOLD.TTF / GANDHISANS-BOLD_1.OTF

Video
ID                                       : 1
Format                                   : AVC
Format/Info                              : Advanced Video Codec
Format profile                           : High 10@L4
Format settings                          : CABAC / 16 Ref Frames
Format settings, CABAC                   : Yes
Format settings, ReFrames                : 16 frames
Codec ID                                 : V_MPEG4/ISO/AVC
Duration                                 : 29 min 6 s
Bit rate                                 : 1 969 kb/s
Width                                    : 720 pixels
Height                                   : 540 pixels
Display aspect ratio                     : 4:3
Frame rate mode                          : Constant
Frame rate                               : 23.976 (24000/1001) FPS
Color space                              : YUV
Chroma subsampling                       : 4:2:0
Bit depth                                : 10 bits
Scan type                                : Progressive
Bits/(Pixel*Frame)                       : 0.211
Stream size                              : 410 MiB (90%)
Writing library                          : x264 core 157 r2969 d4099dd
Encoding settings                        : cabac=1 / ref=16 / deblock=1:-1:-1 / analyse=0x3:0x113 / me=umh / subme=10 / psy=1 / psy_rd=0.70:0.10 / mixed_ref=1 / me_range=32 / chroma_me=1 / trellis=2 / 8x8dct=1 / cqm=0 / deadzone=21,11 / fast_pskip=0 / chroma_qp_offset=-3 / threads=17 / lookahead_threads=4 / sliced_threads=0 / nr=0 / decimate=0 / interlaced=0 / bluray_compat=0 / constrained_intra=0 / bframes=10 / b_pyramid=2 / b_adapt=2 / b_bias=0 / direct=3 / weightb=1 / open_gop=0 / weightp=2 / keyint=240 / keyint_min=24 / scenecut=40 / intra_refresh=0 / rc_lookahead=48 / rc=crf / mbtree=1 / crf=13.0 / qcomp=0.75 / qpmin=0 / qpmax=81 / qpstep=4 / ip_ratio=1.40 / aq=3:0.70
Default                                  : Yes
Forced                                   : No
Color range                              : Limited
Matrix coefficients                      : BT.601

Audio
ID                                       : 2
Format                                   : AC-3
Format/Info                              : Audio Coding 3
Commercial name                          : Dolby Digital
Codec ID                                 : A_AC3
Duration                                 : 29 min 6 s
Bit rate mode                            : Constant
Bit rate                                 : 192 kb/s
Channel(s)                               : 2 channels
Channel layout                           : L R
Sampling rate                            : 48.0 kHz
Frame rate                               : 31.250 FPS (1536 SPF)
Bit depth                                : 16 bits
Compression mode                         : Lossy
Stream size                              : 40.0 MiB (9%)
Language                                 : Japanese
Service kind                             : Complete Main
Default                                  : Yes
Forced                                   : No

Text #1
ID                                       : 3
Format                                   : ASS
Codec ID                                 : S_TEXT/ASS
Codec ID/Info                            : Advanced Sub Station Alpha
Duration                                 : 24 min 59 s
Bit rate                                 : 462 b/s
Count of elements                        : 850
Compression mode                         : Lossless
Stream size                              : 84.6 KiB (0%)
Language                                 : English
Default                                  : No
Forced                                   : No

Text #2
ID                                       : 4
Format                                   : ASS
Codec ID                                 : S_TEXT/ASS
Codec ID/Info                            : Advanced Sub Station Alpha
Duration                                 : 28 min 12 s
Bit rate                                 : 407 b/s
Count of elements                        : 829
Compression mode                         : Lossless
Stream size                              : 84.1 KiB (0%)
Language                                 : Portuguese
Default                                  : Yes
Forced                                   : No

Menu
00:00:00.000                             : :Credits
00:00:11.637                             : :Intro
00:01:50.570                             : :OP
00:03:38.712                             : :Episode
00:25:26.117                             : :ED

Other Files in this Torrent
[Seicher] Golden Boy - 06v2 [DVD x264 10bit].mkv
beta
Anime DDL+NZB mirror
Current Time: 06/03/2021 01:49



About/FAQs