File Size0.979 GB (1,051,105,629 bytes)
DownloadClickNUpload
Jheberg: Part1, Part2
MultiUp: Part1
  • ClickNupload
  • Fichier
  • Filerio
  • Free
  • Fufox
  • HugeFiles
  • Mightyupload
  • ToutBox
  • Turbobit
  • UpToBox
  • Uplea
  • UploadBaz
  • Uploadable
  • Uploaded
  • Uppit
  • Userscloud
, Part2
  • ClickNupload
  • Fichier
  • Filerio
  • Free
  • Fufox
  • HugeFiles
  • Mightyupload
  • ToutBox
  • Turbobit
  • UpToBox
  • Uplea
  • UploadBaz
  • Uploadable
  • Uploaded
  • Uppit
  • Userscloud

OpenLoad: Part1, Part2
Sendspace: Part1, Part2, Part3, Part4
SolidFiles: Part1, Part2, Part3
HashesCRC32: 4C43D8DB, MD5: 0951D533DEA39A6DA83CC8182C7EC640, SHA1: 5FC87CFF56EF92385A1A2FA2F2BEE58DF9ACC2EA, SHA256: 9A284C41B44058E2DB22261878E7CBFE07F81BB10FBF919826E965A1024D46AA, ED2K: 8739AAB10DD8984D1D8DB3987AE24B12
Screenshots
screenshotscreenshotscreenshotscreenshotscreenshot
SubtitlesAll Attachments | @Scum [eng, ASS]
Additional Info
General
Unique ID                                : 207618801623630093338635956766570587247 (0x9C31ED3CA2AFE09CB1E4EC6D3C1A246F)
Complete name                            : [Scum] Made in Abyss - 13 [WEB][4C43D8DB].mkv
Format                                   : Matroska
Format version                           : Version 4 / Version 2
File size                                : 1 002 MiB
Duration                                 : 47 min 19 s
Overall bit rate                         : 2 961 kb/s
Encoded date                             : UTC 2017-10-15 20:14:43
Writing application                      : mkvmerge v15.0.0 ('Duel with the Devil') 64-bit
Writing library                          : libebml v1.3.5 + libmatroska v1.4.5
Attachments                              : maagkramp.ttf / playtime.ttf / Qlassik_TB.otf / Remains.ttf / Barmeno-Roman.ttf / LT.TTF / LTFinnegan MediumItalic.ttf

Video
ID                                       : 1
Format                                   : AVC
Format/Info                              : Advanced Video Codec
Format profile                           : High 4:4:4 Predictive@L5
Format settings, CABAC                   : Yes
Format settings, ReFrames                : 16 frames
Codec ID                                 : V_MPEG4/ISO/AVC
Duration                                 : 47 min 19 s
Bit rate                                 : 2 734 kb/s
Width                                    : 1 600 pixels
Height                                   : 900 pixels
Display aspect ratio                     : 16:9
Frame rate mode                          : Constant
Frame rate                               : 23.976 (24000/1001) FPS
Color space                              : YUV
Chroma subsampling                       : 4:4:4
Bit depth                                : 10 bits
Scan type                                : Progressive
Bits/(Pixel*Frame)                       : 0.079
Stream size                              : 926 MiB (92%)
Title                                    : @Wakanim (WEB)
Writing library                          : x264 core 152 r2851kMod ba24899
Encoding settings                        : cabac=1 / ref=16 / deblock=1:-1:-1 / analyse=0x1:0x131 / me=umh / subme=10 / psy=1 / fade_compensate=0.00 / psy_rd=0.80:0.00 / mixed_ref=1 / me_range=32 / chroma_me=1 / trellis=2 / 8x8dct=0 / cqm=0 / deadzone=21,11 / fast_pskip=0 / chroma_qp_offset=1 / threads=24 / lookahead_threads=6 / sliced_threads=0 / nr=0 / decimate=0 / interlaced=0 / bluray_compat=0 / constrained_intra=0 / bframes=16 / b_pyramid=2 / b_adapt=2 / b_bias=0 / direct=3 / weightb=1 / open_gop=0 / weightp=2 / keyint=240 / keyint_min=24 / scenecut=40 / intra_refresh=0 / rc_lookahead=48 / rc=crf / mbtree=1 / crf=14.0000 / qcomp=0.70 / qpmin=0 / qpmax=81 / qpstep=4 / ip_ratio=1.40 / aq=3:0.85
Language                                 : Japanese
Default                                  : Yes
Forced                                   : Yes
Color range                              : Limited
Matrix coefficients                      : BT.709

Audio
ID                                       : 2
Format                                   : E-AC-3
Format/Info                              : Enhanced Audio Coding 3
Format settings, Endianness              : Big
Codec ID                                 : A_EAC3
Duration                                 : 47 min 19 s
Bit rate mode                            : Constant
Bit rate                                 : 224 kb/s
Channel(s)                               : 2 channels
Channel positions                        : Front: L R
Sampling rate                            : 48.0 kHz
Frame rate                               : 187.500 FPS (256 spf)
Compression mode                         : Lossy
Stream size                              : 75.8 MiB (8%)
Title                                    : @Amazon (WEB)
Language                                 : Japanese
Default                                  : Yes
Forced                                   : Yes

Text
ID                                       : 3
Format                                   : ASS
Codec ID                                 : S_TEXT/ASS
Codec ID/Info                            : Advanced Sub Station Alpha
Duration                                 : 47 min 7 s
Bit rate                                 : 251 b/s
Count of elements                        : 610
Compression mode                         : Lossless
Stream size                              : 86.7 KiB (0%)
Title                                    : @Scum
Language                                 : English
Default                                  : Yes
Forced                                   : Yes

Menu
00:00:00.033                             : en:Intro
00:01:19.970                             : en:"Deep in Abyss" by Riko (CV:Miyu Tomita) and Regu (CV: Mariya Ise) (Opening)
00:02:50.020                             : en:Part A
00:12:18.000                             : en:Part B
00:20:52.980                             : en:Part C
00:38:54.970                             : en:Part D

Other Files in this Torrent
[Scum] Made in Abyss - 13 [WEB][4C43D8DB].mkv
beta
Anime DDL+NZB mirror
Current Time: 17/06/2024 06:56



About/FAQs

Discord