File Size691.8 MB (725,384,978 bytes)
DownloadClickNUpload | Go4Up | Jheberg | MultiUp
  • ClickNupload
  • Fichier
  • Filerio
  • Free
  • Fufox
  • HugeFiles
  • Mightyupload
  • ToutBox
  • Turbobit
  • UpToBox
  • Uplea
  • UploadBaz
  • Uploadable
  • Uploaded
  • Uppit
  • Userscloud
| OpenLoad
Sendspace: Part1, Part2, Part3
SolidFiles: Part1, Part2
HashesCRC32: 6B8EB599, MD5: 42B3CFEF3054D54B5D591FD653FEAB6F, SHA1: FF1593BE37D8286CEB1A1E17B567604C7ADEDDA8, SHA256: 696BFAE7E99384C84860E86D73D89D8E1BCB9E45D514DAA84D1C72A5519BEF54, ED2K: D28E2629FA3C20C5987D4FC099D6854F
Screenshots
screenshotscreenshotscreenshotscreenshotscreenshot
SubtitlesAll Attachments | @Scum [eng, ASS]
Additional Info
General
Unique ID                                : 235546959579036326299806800920566579759 (0xB134B1BC16D684A4AFF84DACC060422F)
Complete name                            : [Scum] Made in Abyss - 12 [WEB][6B8EB599].mkv
Format                                   : Matroska
Format version                           : Version 4 / Version 2
File size                                : 692 MiB
Duration                                 : 23 min 40 s
Overall bit rate                         : 4 087 kb/s
Encoded date                             : UTC 2017-09-22 20:46:58
Writing application                      : mkvmerge v15.0.0 ('Duel with the Devil') 64-bit
Writing library                          : libebml v1.3.5 + libmatroska v1.4.5
Attachments                              : LTFinnegan MediumItalic.ttf / maagkramp.ttf / playtime.ttf / Qlassik_TB.otf / Remains.ttf / Barmeno-Roman.ttf / LT.TTF

Video
ID                                       : 1
Format                                   : AVC
Format/Info                              : Advanced Video Codec
Format profile                           : High 4:4:4 Predictive@L5
Format settings, CABAC                   : Yes
Format settings, ReFrames                : 16 frames
Codec ID                                 : V_MPEG4/ISO/AVC
Duration                                 : 23 min 40 s
Bit rate                                 : 3 858 kb/s
Width                                    : 1 600 pixels
Height                                   : 900 pixels
Display aspect ratio                     : 16:9
Frame rate mode                          : Constant
Frame rate                               : 23.976 (24000/1001) FPS
Color space                              : YUV
Chroma subsampling                       : 4:4:4
Bit depth                                : 10 bits
Scan type                                : Progressive
Bits/(Pixel*Frame)                       : 0.112
Stream size                              : 653 MiB (94%)
Title                                    : @Wakanim (WEB)
Writing library                          : x264 core 152 r2851kMod ba24899
Encoding settings                        : cabac=1 / ref=16 / deblock=1:-1:-1 / analyse=0x1:0x131 / me=umh / subme=10 / psy=1 / fade_compensate=0.00 / psy_rd=0.80:0.00 / mixed_ref=1 / me_range=32 / chroma_me=1 / trellis=2 / 8x8dct=0 / cqm=0 / deadzone=21,11 / fast_pskip=0 / chroma_qp_offset=1 / threads=24 / lookahead_threads=6 / sliced_threads=0 / nr=0 / decimate=0 / interlaced=0 / bluray_compat=0 / constrained_intra=0 / bframes=16 / b_pyramid=2 / b_adapt=2 / b_bias=0 / direct=3 / weightb=1 / open_gop=0 / weightp=2 / keyint=240 / keyint_min=24 / scenecut=40 / intra_refresh=0 / rc_lookahead=48 / rc=crf / mbtree=1 / crf=14.0000 / qcomp=0.70 / qpmin=0 / qpmax=81 / qpstep=4 / ip_ratio=1.40 / aq=3:0.85
Language                                 : Japanese
Default                                  : Yes
Forced                                   : Yes
Color range                              : Limited
Matrix coefficients                      : BT.709

Audio
ID                                       : 2
Format                                   : E-AC-3
Format/Info                              : Enhanced Audio Coding 3
Format settings, Endianness              : Big
Codec ID                                 : A_EAC3
Duration                                 : 23 min 40 s
Bit rate mode                            : Constant
Bit rate                                 : 224 kb/s
Channel(s)                               : 2 channels
Channel positions                        : Front: L R
Sampling rate                            : 48.0 kHz
Frame rate                               : 187.500 FPS (256 spf)
Compression mode                         : Lossy
Stream size                              : 37.9 MiB (5%)
Title                                    : @Amazon (WEB)
Language                                 : Japanese
Default                                  : Yes
Forced                                   : Yes

Text
ID                                       : 3
Format                                   : ASS
Codec ID                                 : S_TEXT/ASS
Codec ID/Info                            : Advanced Sub Station Alpha
Duration                                 : 23 min 38 s
Bit rate                                 : 429 b/s
Count of elements                        : 362
Compression mode                         : Lossless
Stream size                              : 74.4 KiB (0%)
Title                                    : @Scum
Language                                 : English
Default                                  : Yes
Forced                                   : Yes

Menu
00:00:00.033                             : en:Intro
00:03:06.370                             : en:"Deep in Abyss" by Riko (CV:Miyu Tomita) and Regu (CV: Mariya Ise) (Opening)
00:04:36.000                             : en:Part A
00:15:15.970                             : en:Part B
00:22:00.000                             : en:"Tabi no Hidarite, Saihate no Migite (旅の左手、最果ての右手)" by Riko (Miyu Tomita) and Nanachi (Shiori Izawa) (Ending)
00:23:30.010                             : en:Preview

Other Files in this Torrent
[Scum] Made in Abyss - 12 [WEB][6B8EB599].mkv
beta
Anime DDL+NZB mirror
Current Time: 12/07/2024 23:48



About/FAQs

Discord