[SallySubs] One Punch Man - 09 [BD 720p AAC] [8BDA18F6].mkv


File Size456.4 MB (478,603,254 bytes)
DownloadGo4Up | Jheberg | MultiUp
  • ClickNupload
  • Fichier
  • Filerio
  • Free
  • Fufox
  • HugeFiles
  • Mightyupload
  • ToutBox
  • Turbobit
  • UpToBox
  • Uplea
  • UploadBaz
  • Uploadable
  • Uploaded
  • Uppit
  • Userscloud
| OpenLoad | SolidFiles | UsersCloud
Sendspace: Part1, Part2
HashesCRC32: 8BDA18F6, MD5: B824EF999845DCFAB506F87C07814F1E, SHA1: 79FD3A4DE15A40141DFA5D56D53807ABDDFACADB, SHA256: 007627672C14FA626C2D280C65384A604E9B06736C97749290108BD7DB943945, ED2K: 1BF0741AA5019385926B8071F60689B7
Screenshots
screenshotscreenshotscreenshotscreenshotscreenshot
SubtitlesAll Attachments | und [ASS]
Additional Info
General
Unique ID                                : 200866231448848752041320312293346887357 (0x971D6DD2B484F13DAC71DAC84325C6BD)
Complete name                            : [SallySubs] One Punch Man - 09 [BD 720p AAC] [8BDA18F6].mkv
Format                                   : Matroska
Format version                           : Version 4 / Version 2
File size                                : 456 MiB
Duration                                 : 24 min 21 s
Overall bit rate                         : 2 620 kb/s
Encoded date                             : UTC 2016-10-27 16:49:36
Writing application                      : mkvmerge v9.5.0 ('Quiet Fire') 64bit
Writing library                          : libebml v1.3.4 + libmatroska v1.4.5
Attachments                              : Brush Strokes.ttf / Clannad_Round_Regular.ttf / DISTInkingFxd-Bold.otf / fennrg.ttf / Franchise-Bold-hinted.ttf / Grantham Roman.ttf / JennaSue.ttf / Jennifers Hand Writing.ttf / Rosario-Bold.ttf / Rosario-BoldItalic.ttf / SwaggerLight.ttf / SWZ721M.ttf / AdobeHeiti-Kami.ttf / ALLER_LT.TTF / Aller_Rg.ttf / BadHandwriter.ttf / BeautifulEveryTime-Regular.ttf / bellgothicstd-black.otf / Blambot Pro Lite.ttf / BOOKOS.TTF

Video
ID                                       : 1
Format                                   : AVC
Format/Info                              : Advanced Video Codec
Format profile                           : High 10@L5.1
Format settings, CABAC                   : Yes
Format settings, ReFrames                : 15 frames
Codec ID                                 : V_MPEG4/ISO/AVC
Duration                                 : 24 min 21 s
Bit rate                                 : 2 431 kb/s
Width                                    : 1 280 pixels
Height                                   : 720 pixels
Display aspect ratio                     : 16:9
Frame rate mode                          : Constant
Frame rate                               : 23.976 (24000/1001) FPS
Color space                              : YUV
Chroma subsampling                       : 4:2:0
Bit depth                                : 10 bits
Scan type                                : Progressive
Bits/(Pixel*Frame)                       : 0.110
Stream size                              : 424 MiB (93%)
Writing library                          : x264 core 129 r2245+729M 1a52e03
Encoding settings                        : cabac=1 / ref=15 / deblock=1:1:1 / analyse=0x3:0x133 / me=umh / subme=10 / psy=1 / fade_compensate=0.00 / psy_rd=0.70:0.00 / mixed_ref=1 / me_range=24 / chroma_me=1 / trellis=2 / 8x8dct=1 / cqm=0 / deadzone=21,11 / fast_pskip=0 / chroma_qp_offset=-2 / threads=12 / lookahead_threads=3 / sliced_threads=0 / nr=0 / decimate=1 / interlaced=0 / bluray_compat=0 / constrained_intra=0 / fgo=0 / bframes=10 / b_pyramid=2 / b_adapt=2 / b_bias=0 / direct=3 / weightb=1 / open_gop=0 / weightp=2 / keyint=250 / keyint_min=25 / scenecut=40 / intra_refresh=0 / rc_lookahead=250 / rc=crf / mbtree=1 / crf=16.0 / qcomp=0.70 / qpmin=0 / qpmax=81 / qpstep=4 / ip_ratio=1.40 / aq=3:0.90
Language                                 : English
Default                                  : Yes
Forced                                   : No
Color range                              : Limited
Color primaries                          : BT.709
Transfer characteristics                 : BT.709
Matrix coefficients                      : BT.709

Audio
ID                                       : 2
Format                                   : AAC
Format/Info                              : Advanced Audio Codec
Format profile                           : LC
Codec ID                                 : A_AAC
Duration                                 : 24 min 21 s
Bit rate                                 : 170 kb/s
Channel(s)                               : 2 channels
Channel positions                        : Front: L R
Sampling rate                            : 48.0 kHz
Frame rate                               : 46.875 FPS (1024 spf)
Compression mode                         : Lossy
Delay relative to video                  : 9 ms
Stream size                              : 29.7 MiB (7%)
Default                                  : Yes
Forced                                   : No

Text
ID                                       : 3
Format                                   : ASS
Codec ID                                 : S_TEXT/ASS
Codec ID/Info                            : Advanced Sub Station Alpha
Duration                                 : 24 min 17 s
Bit rate                                 : 6 641 b/s
Count of elements                        : 4381
Compression mode                         : Lossless
Stream size                              : 1.15 MiB (0%)
Default                                  : Yes
Forced                                   : No

Menu
00:00:00.000                             : en:Prologue
00:01:53.029                             : en:Opening
00:03:23.119                             : en:Part A
00:11:21.847                             : en:Break
00:11:32.358                             : en:Part B
00:22:01.111                             : en:Ending
00:23:31.284                             : en:Part C
00:24:00.313                             : en:Preview

Other Files in this Torrent
[SallySubs] One Punch Man - 09 [BD 720p AAC] [8BDA18F6].mkv
beta
Anime DDL+NZB mirror
Current Time: 04/12/2021 08:16



About/FAQs

Discord