[SallySubs] One Punch Man - 10 [BD 720p AAC] [39DFAFE6].mkv


File Size295.1 MB (309,420,551 bytes)
DownloadGo4Up | Jheberg | MultiUp
  • ClickNupload
  • Fichier
  • Filerio
  • Free
  • Fufox
  • HugeFiles
  • Mightyupload
  • ToutBox
  • Turbobit
  • UpToBox
  • Uplea
  • UploadBaz
  • Uploadable
  • Uploaded
  • Uppit
  • Userscloud
| OpenLoad | Sendspace | SolidFiles | UsersCloud
HashesCRC32: 39DFAFE6, MD5: 51237DE5B593F137B3F697061A455EB5, SHA1: C7C45C68C4F4B3FBDB995DBB3230C858B3E8F3D2, SHA256: 93AA30DA3296BD372983A322D3E156CA1C0BF21D14F0A3F09E3B4E79493AC1CA, ED2K: 4E674BD567BC3D5B51EE114C7F181A37
Screenshots
screenshotscreenshotscreenshotscreenshotscreenshot
SubtitlesAll Attachments | und [ASS]
Additional Info
General
Unique ID                                : 184482048472768624655294426314405199588 (0x8AC9F33C15861837A6C89C92F9823EE4)
Complete name                            : [SallySubs] One Punch Man - 10 [BD 720p AAC] [39DFAFE6].mkv
Format                                   : Matroska
Format version                           : Version 4 / Version 2
File size                                : 295 MiB
Duration                                 : 24 min 21 s
Overall bit rate                         : 1 694 kb/s
Encoded date                             : UTC 2016-10-27 16:51:19
Writing application                      : mkvmerge v9.5.0 ('Quiet Fire') 64bit
Writing library                          : libebml v1.3.4 + libmatroska v1.4.5
Attachments                              : Brush Strokes.ttf / DISTInkingFxd-Bold.otf / Franchise-Bold-hinted.ttf / JennaSue.ttf / Kick ITC TT.ttf / LibbyHand.ttf / Rosario-Bold.ttf / Rosario-BoldItalic.ttf / SWZ721H.ttf / AdobeHeiti-Kami.ttf

Video
ID                                       : 1
Format                                   : AVC
Format/Info                              : Advanced Video Codec
Format profile                           : High 10@L5.1
Format settings, CABAC                   : Yes
Format settings, ReFrames                : 15 frames
Codec ID                                 : V_MPEG4/ISO/AVC
Duration                                 : 24 min 21 s
Bit rate                                 : 1 522 kb/s
Width                                    : 1 280 pixels
Height                                   : 720 pixels
Display aspect ratio                     : 16:9
Frame rate mode                          : Constant
Frame rate                               : 23.976 (24000/1001) FPS
Color space                              : YUV
Chroma subsampling                       : 4:2:0
Bit depth                                : 10 bits
Scan type                                : Progressive
Bits/(Pixel*Frame)                       : 0.069
Stream size                              : 265 MiB (90%)
Writing library                          : x264 core 129 r2245+729M 1a52e03
Encoding settings                        : cabac=1 / ref=15 / deblock=1:1:1 / analyse=0x3:0x133 / me=umh / subme=10 / psy=1 / fade_compensate=0.00 / psy_rd=0.70:0.00 / mixed_ref=1 / me_range=24 / chroma_me=1 / trellis=2 / 8x8dct=1 / cqm=0 / deadzone=21,11 / fast_pskip=0 / chroma_qp_offset=-2 / threads=12 / lookahead_threads=3 / sliced_threads=0 / nr=0 / decimate=1 / interlaced=0 / bluray_compat=0 / constrained_intra=0 / fgo=0 / bframes=10 / b_pyramid=2 / b_adapt=2 / b_bias=0 / direct=3 / weightb=1 / open_gop=0 / weightp=2 / keyint=250 / keyint_min=25 / scenecut=40 / intra_refresh=0 / rc_lookahead=250 / rc=crf / mbtree=1 / crf=16.0 / qcomp=0.70 / qpmin=0 / qpmax=81 / qpstep=4 / ip_ratio=1.40 / aq=3:0.90
Language                                 : English
Default                                  : Yes
Forced                                   : No
Color range                              : Limited
Color primaries                          : BT.709
Transfer characteristics                 : BT.709
Matrix coefficients                      : BT.709

Audio
ID                                       : 2
Format                                   : AAC
Format/Info                              : Advanced Audio Codec
Format profile                           : LC
Codec ID                                 : A_AAC
Duration                                 : 24 min 21 s
Bit rate                                 : 165 kb/s
Channel(s)                               : 2 channels
Channel positions                        : Front: L R
Sampling rate                            : 48.0 kHz
Frame rate                               : 46.875 FPS (1024 spf)
Compression mode                         : Lossy
Delay relative to video                  : 9 ms
Stream size                              : 28.7 MiB (10%)
Default                                  : Yes
Forced                                   : No

Text
ID                                       : 3
Format                                   : ASS
Codec ID                                 : S_TEXT/ASS
Codec ID/Info                            : Advanced Sub Station Alpha
Duration                                 : 24 min 1 s
Bit rate                                 : 408 b/s
Count of elements                        : 799
Compression mode                         : Lossless
Stream size                              : 71.9 KiB (0%)
Default                                  : Yes
Forced                                   : No

Menu
00:00:00.000                             : en:Prologue
00:01:16.993                             : en:Opening
00:02:47.083                             : en:Part A
00:14:56.770                             : en:Break
00:15:07.281                             : en:Part B
00:22:29.973                             : en:Ending
00:24:00.147                             : en:Preview

Other Files in this Torrent
[SallySubs] One Punch Man - 10 [BD 720p AAC] [39DFAFE6].mkv
beta
Anime DDL+NZB mirror
Current Time: 02/12/2021 15:54



About/FAQs

Discord