[SallySubs] One Punch Man - OAD 5 [BD 720p AAC] [75A22E54].mkv


File Size160.2 MB (167,939,225 bytes)
DownloadGo4Up | Jheberg | MultiUp | OpenLoad | Sendspace | SolidFiles | UsersCloud
HashesCRC32: 75A22E54, MD5: E52B9E89BF9A2BE9092DDFAA964CC668, SHA1: 7D023BACC6CDC673E14802FEF2878D3D249F9045, SHA256: 7C75671BA475B59E56207EA7FC2AA8FA04D9E9014345A745838896A42FE24868, ED2K: 405C7FB26C9D72380C956FE0FDCC4783
Screenshots
screenshotscreenshotscreenshotscreenshotscreenshot
SubtitlesAll Attachments | und [ASS]
Additional Info
General
Unique ID                                : 200981193110765594320769662208821838914 (0x973391DEE0496E15A446F515531E4442)
Complete name                            : [SallySubs] One Punch Man - OAD 5 [BD 720p AAC] [75A22E54].mkv
Format                                   : Matroska
Format version                           : Version 4 / Version 2
File size                                : 160 MiB
Duration                                 : 11 min 54 s
Overall bit rate                         : 1 880 kb/s
Encoded date                             : UTC 2016-10-27 16:52:39
Writing application                      : mkvmerge v9.5.0 ('Quiet Fire') 64bit
Writing library                          : libebml v1.3.4 + libmatroska v1.4.5
Attachments                              : Rosario-Bold.ttf / Rosario-BoldItalic.ttf / SubClearSans-Bold.ttf / bellgothicstd-black.otf / DISTInkingFxd-Bold.otf

Video
ID                                       : 1
Format                                   : AVC
Format/Info                              : Advanced Video Codec
Format profile                           : High 10@L5.1
Format settings, CABAC                   : Yes
Format settings, ReFrames                : 15 frames
Codec ID                                 : V_MPEG4/ISO/AVC
Duration                                 : 11 min 54 s
Bit rate                                 : 1 700 kb/s
Width                                    : 1 280 pixels
Height                                   : 720 pixels
Display aspect ratio                     : 16:9
Frame rate mode                          : Constant
Frame rate                               : 23.976 (24000/1001) FPS
Color space                              : YUV
Chroma subsampling                       : 4:2:0
Bit depth                                : 10 bits
Scan type                                : Progressive
Bits/(Pixel*Frame)                       : 0.077
Stream size                              : 145 MiB (90%)
Writing library                          : x264 core 129 r2245+729M 1a52e03
Encoding settings                        : cabac=1 / ref=15 / deblock=1:1:1 / analyse=0x3:0x133 / me=umh / subme=10 / psy=1 / fade_compensate=0.00 / psy_rd=0.70:0.00 / mixed_ref=1 / me_range=24 / chroma_me=1 / trellis=2 / 8x8dct=1 / cqm=0 / deadzone=21,11 / fast_pskip=0 / chroma_qp_offset=-2 / threads=12 / lookahead_threads=3 / sliced_threads=0 / nr=0 / decimate=1 / interlaced=0 / bluray_compat=0 / constrained_intra=0 / fgo=0 / bframes=10 / b_pyramid=2 / b_adapt=2 / b_bias=0 / direct=3 / weightb=1 / open_gop=0 / weightp=2 / keyint=250 / keyint_min=25 / scenecut=40 / intra_refresh=0 / rc_lookahead=250 / rc=crf / mbtree=1 / crf=16.0 / qcomp=0.70 / qpmin=0 / qpmax=81 / qpstep=4 / ip_ratio=1.40 / aq=3:0.90
Language                                 : English
Default                                  : Yes
Forced                                   : No
Color range                              : Limited
Color primaries                          : BT.709
Transfer characteristics                 : BT.709
Matrix coefficients                      : BT.709

Audio
ID                                       : 2
Format                                   : AAC
Format/Info                              : Advanced Audio Codec
Format profile                           : LC
Codec ID                                 : A_AAC
Duration                                 : 11 min 54 s
Bit rate                                 : 167 kb/s
Channel(s)                               : 2 channels
Channel positions                        : Front: L R
Sampling rate                            : 48.0 kHz
Frame rate                               : 46.875 FPS (1024 spf)
Compression mode                         : Lossy
Delay relative to video                  : 9 ms
Stream size                              : 14.2 MiB (9%)
Default                                  : Yes
Forced                                   : No

Text
ID                                       : 3
Format                                   : ASS
Codec ID                                 : S_TEXT/ASS
Codec ID/Info                            : Advanced Sub Station Alpha
Duration                                 : 10 min 9 s
Bit rate                                 : 4 560 b/s
Count of elements                        : 2444
Compression mode                         : Lossless
Stream size                              : 339 KiB (0%)
Default                                  : Yes
Forced                                   : No

Menu
00:00:00.000                             : en:Episode
00:10:16.032                             : en:Ending

Other Files in this Torrent
[SallySubs] One Punch Man - OAD 5 [BD 720p AAC] [75A22E54].mkv
beta
Anime DDL+NZB mirror
Current Time: 02/12/2021 15:16



About/FAQs

Discord