[RH] Violet Evergarden - 12 (Dual Audio 1080p) [2FC07118].mkv


File Size641.8 MB (672,965,354 bytes)
DownloadClickNUpload | DiskoKosmiko | Go4Up | Jheberg | MultiUp | OpenLoad
Sendspace: Part1, Part2, Part3
SolidFiles: Part1, Part2
ZippyShare: Part1, Part2
Encrypted DownloadDirect
Password:
HashesCRC32: 2FC07118, MD5: 7F93FEE473566069E24A3C5C8643CE10, SHA1: 1EF8BC10BCD9FABC87B81E33CDE2C06971EFD8A2, SHA256: CECD64334DA3280F6A76675977A43E69B42D55D6DD291C57B6C3F41903D7F589, ED2K: 1C99E46FAE4B6E7A0D4F648BEC8C63E5
Screenshots
screenshotscreenshotscreenshotscreenshotscreenshot
SubtitlesAll Attachments | Signs & Songs [Vivid-Asenshi] [eng, ASS], Dialogue [Vivid-Asenshi] [eng, ASS], Signs & Songs [Netflix] [eng, SRT], Dialogue [Netflix] [eng, SRT]
Additional Info
General
Unique ID                                : 19100273651310958111969230646462534623 (0xE5E943299C5DA550B13400920EE53DF)
Complete name                            : [RH] Violet Evergarden - 12 (Dual Audio 1080p) [2FC07118].mkv
Format                                   : Matroska
Format version                           : Version 4 / Version 2
File size                                : 642 MiB
Duration                                 : 23 min 39 s
Overall bit rate mode                    : Variable
Overall bit rate                         : 3 793 kb/s
Movie name                               : [RH] Violet Evergarden - 12 [Dual Audio] [WebRip] [1080p]
Encoded date                             : UTC 2018-03-30 08:18:16
Writing application                      : mkvmerge v19.0.0 ('Brave Captain') 64-bit
Writing library                          : libebml v1.3.5 + libmatroska v1.4.8
Attachments                              : IwaOMinPro-Bd-Fate.ttf / justs.ttf / RH-Sans.ttf / RH-Sans-Italic.ttf

Video
ID                                       : 1
Format                                   : AVC
Format/Info                              : Advanced Video Codec
Format profile                           : Main@L4
Format settings, CABAC                   : Yes
Format settings, ReFrames                : 3 frames
Codec ID                                 : V_MPEG4/ISO/AVC
Duration                                 : 23 min 39 s
Bit rate mode                            : Variable
Bit rate                                 : 3 512 kb/s
Maximum bit rate                         : 5 220 kb/s
Width                                    : 1 920 pixels
Height                                   : 1 080 pixels
Display aspect ratio                     : 16:9
Frame rate mode                          : Constant
Frame rate                               : 23.976 (24000/1001) FPS
Color space                              : YUV
Chroma subsampling                       : 4:2:0
Bit depth                                : 8 bits
Scan type                                : Progressive
Bits/(Pixel*Frame)                       : 0.071
Stream size                              : 594 MiB (93%)
Title                                    : 1080p h.264
Language                                 : Japanese
Default                                  : Yes
Forced                                   : No

Audio #1
ID                                       : 2
Format                                   : E-AC-3
Format/Info                              : Enhanced Audio Coding 3
Format settings, Endianness              : Big
Codec ID                                 : A_EAC3
Duration                                 : 23 min 39 s
Bit rate mode                            : Constant
Bit rate                                 : 128 kb/s
Channel(s)                               : 2 channels
Channel positions                        : Front: L R
Sampling rate                            : 48.0 kHz
Frame rate                               : 187.500 FPS (256 spf)
Compression mode                         : Lossy
Stream size                              : 21.7 MiB (3%)
Title                                    : 2.0 EAC3
Language                                 : English
Default                                  : Yes
Forced                                   : No

Audio #2
ID                                       : 3
Format                                   : E-AC-3
Format/Info                              : Enhanced Audio Coding 3
Format settings, Endianness              : Big
Codec ID                                 : A_EAC3
Duration                                 : 23 min 39 s
Bit rate mode                            : Constant
Bit rate                                 : 128 kb/s
Channel(s)                               : 2 channels
Channel positions                        : Front: L R
Sampling rate                            : 48.0 kHz
Frame rate                               : 187.500 FPS (256 spf)
Compression mode                         : Lossy
Stream size                              : 21.7 MiB (3%)
Title                                    : 2.0 EAC3
Language                                 : Japanese
Default                                  : No
Forced                                   : No

Text #1
ID                                       : 4
Format                                   : ASS
Codec ID                                 : S_TEXT/ASS
Codec ID/Info                            : Advanced Sub Station Alpha
Duration                                 : 21 min 52 s
Bit rate                                 : 8 547 b/s
Count of elements                        : 1622
Compression mode                         : Lossless
Stream size                              : 1.34 MiB (0%)
Title                                    : Signs & Songs [Vivid-Asenshi]
Language                                 : English
Default                                  : Yes
Forced                                   : No

Text #2
ID                                       : 5
Format                                   : ASS
Codec ID                                 : S_TEXT/ASS
Codec ID/Info                            : Advanced Sub Station Alpha
Duration                                 : 23 min 36 s
Bit rate                                 : 8 007 b/s
Count of elements                        : 1885
Compression mode                         : Lossless
Stream size                              : 1.35 MiB (0%)
Title                                    : Dialogue [Vivid-Asenshi]
Language                                 : English
Default                                  : No
Forced                                   : No

Text #3
ID                                       : 6
Format                                   : UTF-8
Codec ID                                 : S_TEXT/UTF8
Codec ID/Info                            : UTF-8 Plain Text
Bit rate                                 : 0 b/s
Count of elements                        : 0
Stream size                              : 0.00 Byte (0%)
Title                                    : Signs & Songs [Netflix]
Language                                 : English
Default                                  : No
Forced                                   : No

Text #4
ID                                       : 7
Format                                   : UTF-8
Codec ID                                 : S_TEXT/UTF8
Codec ID/Info                            : UTF-8 Plain Text
Duration                                 : 21 min 49 s
Bit rate                                 : 58 b/s
Count of elements                        : 250
Stream size                              : 9.40 KiB (0%)
Title                                    : Dialogue [Netflix]
Language                                 : English
Default                                  : No
Forced                                   : No

Menu
00:00:00.000                             : :Intro
00:01:44.938                             : :OP
00:03:14.903                             : :Part A
00:12:36.923                             : :Part B
00:22:09.829                             : :ED

Other Files in this Torrent
[RH] Violet Evergarden - 12 (Dual Audio 1080p) [2FC07118].mkv
beta
Anime DDL+NZB mirror
Current Time: 04/04/2020 20:43



About/FAQs