[RH] Violet Evergarden - 09 (Dual Audio 1080p) [BCBB094A].mkv


File Size346.8 MB (363,622,701 bytes)
DownloadClickNUpload | DiskoKosmiko | Go4Up | Jheberg | MultiUp | OpenLoad | SolidFiles | ZippyShare
Sendspace: Part1, Part2
Encrypted DownloadDirect
Password:
HashesCRC32: BCBB094A, MD5: 787439061480C9D319545DDEFB0ABAF5, SHA1: 47FFB1549E93568DDAE68382172951C53E1B0426, SHA256: FAE0384E5BA933A99FABEA8B7B0FDD671061D636114F5C5E1EB9C9630BDD3FAB, ED2K: DE30EDC8DFE7D4B3E6BB8E02E74B8C2C
Screenshots
screenshotscreenshotscreenshotscreenshotscreenshot
SubtitlesAll Attachments | Signs & Songs [Vivid-Asenshi] [eng, ASS], Dialogue [Vivid-Asenshi] [eng, ASS], Signs & Songs [Netflix] [eng, SRT], Dialogue [Netflix] [eng, SRT]
Additional Info
General
Unique ID                                : 83696672913460052825361847439212569903 (0x3EF7649289364933FB7FCFF88AEA652F)
Complete name                            : [RH] Violet Evergarden - 09 (Dual Audio 1080p) [BCBB094A].mkv
Format                                   : Matroska
Format version                           : Version 4 / Version 2
File size                                : 347 MiB
Duration                                 : 23 min 40 s
Overall bit rate mode                    : Variable
Overall bit rate                         : 2 049 kb/s
Movie name                               : [RH] Violet Evergarden - 09 [Dual Audio] [WebRip] [1080p]
Encoded date                             : UTC 2018-03-09 10:13:38
Writing application                      : mkvmerge v19.0.0 ('Brave Captain') 64-bit
Writing library                          : libebml v1.3.5 + libmatroska v1.4.8
Attachments                              : IwaMinPro-Md-Kami.ttf / IwaOMinPro-Bd-Fate.ttf / RH-Sans.ttf / RH-Sans-Italic.ttf

Video
ID                                       : 1
Format                                   : AVC
Format/Info                              : Advanced Video Codec
Format profile                           : Main@L4
Format settings, CABAC                   : Yes
Format settings, ReFrames                : 3 frames
Codec ID                                 : V_MPEG4/ISO/AVC
Duration                                 : 23 min 39 s
Bit rate mode                            : Variable
Bit rate                                 : 1 783 kb/s
Maximum bit rate                         : 2 670 kb/s
Width                                    : 1 920 pixels
Height                                   : 1 080 pixels
Display aspect ratio                     : 16:9
Frame rate mode                          : Constant
Frame rate                               : 23.976 (24000/1001) FPS
Color space                              : YUV
Chroma subsampling                       : 4:2:0
Bit depth                                : 8 bits
Scan type                                : Progressive
Bits/(Pixel*Frame)                       : 0.036
Stream size                              : 302 MiB (87%)
Title                                    : 1080p h.264
Language                                 : Japanese
Default                                  : Yes
Forced                                   : No

Audio #1
ID                                       : 2
Format                                   : E-AC-3
Format/Info                              : Enhanced Audio Coding 3
Format settings, Endianness              : Big
Codec ID                                 : A_EAC3
Duration                                 : 23 min 39 s
Bit rate mode                            : Constant
Bit rate                                 : 128 kb/s
Channel(s)                               : 2 channels
Channel positions                        : Front: L R
Sampling rate                            : 48.0 kHz
Frame rate                               : 187.500 FPS (256 spf)
Compression mode                         : Lossy
Stream size                              : 21.7 MiB (6%)
Title                                    : 2.0 EAC3
Language                                 : English
Default                                  : Yes
Forced                                   : No

Audio #2
ID                                       : 3
Format                                   : E-AC-3
Format/Info                              : Enhanced Audio Coding 3
Format settings, Endianness              : Big
Codec ID                                 : A_EAC3
Duration                                 : 23 min 39 s
Bit rate mode                            : Constant
Bit rate                                 : 128 kb/s
Channel(s)                               : 2 channels
Channel positions                        : Front: L R
Sampling rate                            : 48.0 kHz
Frame rate                               : 187.500 FPS (256 spf)
Compression mode                         : Lossy
Stream size                              : 21.7 MiB (6%)
Title                                    : 2.0 EAC3
Language                                 : Japanese
Default                                  : No
Forced                                   : No

Text #1
ID                                       : 4
Format                                   : ASS
Codec ID                                 : S_TEXT/ASS
Codec ID/Info                            : Advanced Sub Station Alpha
Duration                                 : 1 min 34 s
Bit rate                                 : 192 b/s
Count of elements                        : 25
Compression mode                         : Lossless
Stream size                              : 2.21 KiB (0%)
Title                                    : Signs & Songs [Vivid-Asenshi]
Language                                 : English
Default                                  : Yes
Forced                                   : No

Text #2
ID                                       : 5
Format                                   : ASS
Codec ID                                 : S_TEXT/ASS
Codec ID/Info                            : Advanced Sub Station Alpha
Duration                                 : 23 min 39 s
Bit rate                                 : 77 b/s
Count of elements                        : 236
Compression mode                         : Lossless
Stream size                              : 13.4 KiB (0%)
Title                                    : Dialogue [Vivid-Asenshi]
Language                                 : English
Default                                  : No
Forced                                   : No

Text #3
ID                                       : 6
Format                                   : UTF-8
Codec ID                                 : S_TEXT/UTF8
Codec ID/Info                            : UTF-8 Plain Text
Duration                                 : 3 s 879 ms
Bit rate                                 : 35 b/s
Count of elements                        : 1
Stream size                              : 17.0 Bytes (0%)
Title                                    : Signs & Songs [Netflix]
Language                                 : English
Default                                  : No
Forced                                   : No

Text #4
ID                                       : 7
Format                                   : UTF-8
Codec ID                                 : S_TEXT/UTF8
Codec ID/Info                            : UTF-8 Plain Text
Duration                                 : 23 min 38 s
Bit rate                                 : 38 b/s
Count of elements                        : 214
Stream size                              : 6.59 KiB (0%)
Title                                    : Dialogue [Netflix]
Language                                 : English
Default                                  : No
Forced                                   : No

Menu
00:00:00.000                             : :Intro
00:03:25.914                             : :Part A
00:12:03.890                             : :Part B

Other Files in this Torrent
[RH] Violet Evergarden - 09 (Dual Audio 1080p) [BCBB094A].mkv
beta
Anime DDL+NZB mirror
Current Time: 29/03/2020 20:25



About/FAQs