[RH] Violet Evergarden - 08 (Dual Audio 1080p) [E8BDC913].mkv


File Size586.1 MB (614,523,909 bytes)
DownloadClickNUpload | DiskoKosmiko | Go4Up | Jheberg | MultiUp | OpenLoad
Sendspace: Part1, Part2
SolidFiles: Part1, Part2
ZippyShare: Part1, Part2
Encrypted DownloadDirect
Password:
HashesCRC32: E8BDC913, MD5: 73CF17338273F0EFA39F2E0CDA1A1A72, SHA1: 0B089BEDB54F2912A47381EBE50BC20574786849, SHA256: DF6D195EF3A4B241B652814A6B7D6FD3C69AB51EE9A836BDC4C5DBA65E526FE7, ED2K: 80C2082FAA26415769A1830784EBEC62
Screenshots
screenshotscreenshotscreenshotscreenshotscreenshot
SubtitlesAll Attachments | Signs & Songs [Vivid-Asenshi] [eng, ASS], Dialogue [Vivid-Asenshi] [eng, ASS], Signs & Songs [Netflix] [eng, SRT], Dialogue [Netflix] [eng, SRT]
Additional Info
General
Unique ID                                : 149621996271787125739770674331551099310 (0x709025F6B80FB29D2F4E0C651E6969AE)
Complete name                            : [RH] Violet Evergarden - 08 (Dual Audio 1080p) [E8BDC913].mkv
Format                                   : Matroska
Format version                           : Version 4 / Version 2
File size                                : 586 MiB
Duration                                 : 23 min 39 s
Overall bit rate mode                    : Variable
Overall bit rate                         : 3 464 kb/s
Movie name                               : [RH] Violet Evergarden - 08 [Dual Audio] [WebRip] [1080p]
Encoded date                             : UTC 2018-03-02 11:10:34
Writing application                      : mkvmerge v19.0.0 ('Brave Captain') 64-bit
Writing library                          : libebml v1.3.5 + libmatroska v1.4.8
Attachments                              : FOT-KleePro-DB-Str.otf / IwaOMinPro-Bd-Fate.ttf / justs.ttf / RH-Sans.ttf

Video
ID                                       : 1
Format                                   : AVC
Format/Info                              : Advanced Video Codec
Format profile                           : Main@L4
Format settings, CABAC                   : Yes
Format settings, ReFrames                : 3 frames
Codec ID                                 : V_MPEG4/ISO/AVC
Duration                                 : 23 min 39 s
Bit rate mode                            : Variable
Bit rate                                 : 3 183 kb/s
Maximum bit rate                         : 4 740 kb/s
Width                                    : 1 920 pixels
Height                                   : 1 080 pixels
Display aspect ratio                     : 16:9
Frame rate mode                          : Constant
Frame rate                               : 23.976 (24000/1001) FPS
Color space                              : YUV
Chroma subsampling                       : 4:2:0
Bit depth                                : 8 bits
Scan type                                : Progressive
Bits/(Pixel*Frame)                       : 0.064
Stream size                              : 539 MiB (92%)
Title                                    : 1080p h.264
Language                                 : Japanese
Default                                  : Yes
Forced                                   : No

Audio #1
ID                                       : 2
Format                                   : E-AC-3
Format/Info                              : Enhanced Audio Coding 3
Format settings, Endianness              : Big
Codec ID                                 : A_EAC3
Duration                                 : 23 min 39 s
Bit rate mode                            : Constant
Bit rate                                 : 128 kb/s
Channel(s)                               : 2 channels
Channel positions                        : Front: L R
Sampling rate                            : 48.0 kHz
Frame rate                               : 187.500 FPS (256 spf)
Compression mode                         : Lossy
Stream size                              : 21.7 MiB (4%)
Title                                    : 2.0 EAC3
Language                                 : English
Default                                  : Yes
Forced                                   : No

Audio #2
ID                                       : 3
Format                                   : E-AC-3
Format/Info                              : Enhanced Audio Coding 3
Format settings, Endianness              : Big
Codec ID                                 : A_EAC3
Duration                                 : 23 min 39 s
Bit rate mode                            : Constant
Bit rate                                 : 128 kb/s
Channel(s)                               : 2 channels
Channel positions                        : Front: L R
Sampling rate                            : 48.0 kHz
Frame rate                               : 187.500 FPS (256 spf)
Compression mode                         : Lossy
Stream size                              : 21.7 MiB (4%)
Title                                    : 2.0 EAC3
Language                                 : Japanese
Default                                  : No
Forced                                   : No

Text #1
ID                                       : 4
Format                                   : ASS
Codec ID                                 : S_TEXT/ASS
Codec ID/Info                            : Advanced Sub Station Alpha
Duration                                 : 22 min 48 s
Bit rate                                 : 8 157 b/s
Count of elements                        : 1631
Compression mode                         : Lossless
Stream size                              : 1.33 MiB (0%)
Title                                    : Signs & Songs [Vivid-Asenshi]
Language                                 : English
Default                                  : Yes
Forced                                   : No

Text #2
ID                                       : 5
Format                                   : ASS
Codec ID                                 : S_TEXT/ASS
Codec ID/Info                            : Advanced Sub Station Alpha
Duration                                 : 23 min 35 s
Bit rate                                 : 7 966 b/s
Count of elements                        : 1901
Compression mode                         : Lossless
Stream size                              : 1.34 MiB (0%)
Title                                    : Dialogue [Vivid-Asenshi]
Language                                 : English
Default                                  : No
Forced                                   : No

Text #3
ID                                       : 6
Format                                   : UTF-8
Codec ID                                 : S_TEXT/UTF8
Codec ID/Info                            : UTF-8 Plain Text
Duration                                 : 12 min 55 s
Bit rate                                 : 1 b/s
Count of elements                        : 3
Stream size                              : 109 Bytes (0%)
Title                                    : Signs & Songs [Netflix]
Language                                 : English
Default                                  : No
Forced                                   : No

Text #4
ID                                       : 7
Format                                   : UTF-8
Codec ID                                 : S_TEXT/UTF8
Codec ID/Info                            : UTF-8 Plain Text
Duration                                 : 22 min 5 s
Bit rate                                 : 47 b/s
Count of elements                        : 263
Stream size                              : 7.75 KiB (0%)
Title                                    : Dialogue [Netflix]
Language                                 : English
Default                                  : No
Forced                                   : No

Menu
00:00:00.000                             : :Intro
00:00:49.007                             : :OP
00:02:18.972                             : :Part A
00:11:30.940                             : :Part B
00:22:09.912                             : :ED

Other Files in this Torrent
[RH] Violet Evergarden - 08 (Dual Audio 1080p) [E8BDC913].mkv
beta
Anime DDL+NZB mirror
Current Time: 04/04/2020 20:53



About/FAQs