File Size496.8 MB (520,970,683 bytes)
DownloadClickNUpload | Jheberg | MultiUp
  • BdUpload
  • DownAce
  • Fichier
  • FileCloud
  • Filerio
  • FilesCdn
  • IndiShare
  • Kbagi
  • Turbobit
  • UpToBox
  • Uppit
| OpenLoad | SolidFiles | ZippyShare
Sendspace: Part1, Part2
HashesCRC32: C1E52CBA, MD5: 6EF3366DB7A320D9053AF5E7E67ABF1D, SHA1: 45A19546491772AAB1240A389367BCDE3378B747, SHA256: 14D6091B35B088EBE429A2130AD031601A03E9462ED9D3E18A0CAE66386AA045, ED2K: A4FD0F030702A6B18E386FEDCC948110
Screenshots
screenshotscreenshotscreenshotscreenshotscreenshot
SubtitlesAll Attachments | eng [ASS], eng [ASS]
Additional Info
General
Unique ID                                : 323525687136722843394698766661925581605 (0xF364C7E6ABB996798968E28673BDB325)
Complete name                            : [Prof] Episode 18 - Kill the Demon.mkv
Format                                   : Matroska
Format version                           : Version 4
File size                                : 497 MiB
Duration                                 : 23 min 41 s
Overall bit rate                         : 2 932 kb/s
Movie name                               : [Doki] Akame ga Kill! - 18 (1920x1080 Hi10P BD FLAC).mkv
Encoded date                             : UTC 2019-09-05 23:18:34
Writing application                      : mkvmerge v35.0.0 ('All The Love In The World') 64-bit
Writing library                          : libebml v1.3.9 + libmatroska v1.5.2
Cover                                    : Yes
Attachments                              : cover.jpg / 9SALERNO.ttf / agrounded-book.ttf / Andy Bold.ttf / angelina.ttf / ArchitectsDaughter.ttf / AS_Harliquin.ttf / AvantGarde Bk BT Eclipse Book.ttf / BellGothicStd-Black_1.otf / Boopee Bold.ttf / Bradley Hand ITC.ttf / Brianne_s_hand.ttf / BrushType-SemiBoldA.ttf / Cheyenne Hand.ttf / Chinacat_0.ttf / City Life.ttf / CK Marker.ttf / Corbel_1.ttf / DFKai-SB.ttf / Dominican.ttf / Dusseldorf.ttf / Formal 436 BT PL.ttf / Geek a byte.ttf / Goudy Old Style Bold.ttf / HumanaSerifITCLight.ttf / KG Shadow of the Day.ttf / KozukaMinchoProStrp-EL.otf / LinLibertine_R.ttf / Merienda One.ttf / My Bleeding Scars2.ttf / Penshurst Bold.ttf / Penshurst.ttf / PrincesHand Regular.ttf / Sub-Alegreya-Bold.otf / Sub-Alegreya-BoldItalic.otf / To forgive.ttf / Vesta-Bold_3.otf / Yellowjacket.ttf / Yikes!.ttf
Writing frontend                         : StaxRip v2.0.0.0

Video
ID                                       : 1
Format                                   : HEVC
Format/Info                              : High Efficiency Video Coding
Format profile                           : Main 10@L4@Main
Codec ID                                 : V_MPEGH/ISO/HEVC
Duration                                 : 23 min 41 s
Bit rate                                 : 1 959 kb/s
Width                                    : 1 920 pixels
Height                                   : 1 080 pixels
Display aspect ratio                     : 16:9
Frame rate mode                          : Constant
Frame rate                               : 23.976 (24000/1001) FPS
Color space                              : YUV
Chroma subsampling                       : 4:2:0
Bit depth                                : 10 bits
Bits/(Pixel*Frame)                       : 0.039
Stream size                              : 332 MiB (67%)
Writing library                          : x265 3.1+11-de920e0a3183:[Windows][MSVC 1922][64 bit] 10bit
Encoding settings                        : cpuid=1111039 / frame-threads=2 / numa-pools=4 / wpp / no-pmode / no-pme / no-psnr / no-ssim / log-level=2 / input-csp=1 / input-res=1920x1080 / interlace=0 / total-frames=34072 / level-idc=0 / high-tier=1 / uhd-bd=0 / ref=4 / no-allow-non-conformance / no-repeat-headers / annexb / no-aud / no-hrd / info / hash=0 / no-temporal-layers / open-gop / min-keyint=23 / keyint=250 / gop-lookahead=0 / bframes=8 / b-adapt=2 / b-pyramid / bframe-bias=0 / rc-lookahead=80 / lookahead-slices=6 / scenecut=40 / radl=0 / no-splice / no-intra-refresh / ctu=64 / min-cu-size=8 / rect / no-amp / max-tu-size=32 / tu-inter-depth=1 / tu-intra-depth=1 / limit-tu=0 / rdoq-level=2 / dynamic-rd=0.00 / no-ssim-rd / signhide / no-tskip / nr-intra=0 / nr-inter=0 / no-constrained-intra / strong-intra-smoothing / max-merge=3 / limit-refs=3 / limit-modes / me=3 / subme=3 / merange=57 / temporal-mvp / no-hme / weightp / no-weightb / no-analyze-src-pics / deblock=0:0 / sao / no-sao-non-deblock / rd=4 / no-early-skip / rskip / no-fast-intra / no-tskip-fast / no-cu-lossless / no-b-intra / no-splitrd-skip / rdpenalty=0 / psy-rd=2.00 / psy-rdoq=1.00 / no-rd-refine / no-lossless / cbqpoffs=0 / crqpoffs=0 / rc=crf / crf=19.0 / qcomp=0.60 / qpstep=4 / stats-write=0 / stats-read=0 / ipratio=1.40 / pbratio=1.30 / aq-mode=2 / aq-strength=1.00 / cutree / zone-count=0 / no-strict-cbr / qg-size=32 / no-rc-grain / qpmax=69 / qpmin=0 / no-const-vbv / sar=0 / overscan=0 / videoformat=5 / range=0 / colorprim=2 / transfer=2 / colormatrix=2 / chromaloc=0 / display-window=0cll=0,0 / min-luma=0 / max-luma=1023 / log2-max-poc-lsb=8 / vui-timing-info / vui-hrd-info / slices=1 / no-opt-qp-pps / no-opt-ref-list-length-pps / no-multi-pass-opt-rps / scenecut-bias=0.00 / no-opt-cu-delta-qp / no-aq-motion / no-hdr / no-hdr-opt / no-dhdr10-opt / no-idr-recovery-sei / analysis-reuse-level=5 / scale-factor=0 / refine-intra=0 / refine-inter=0 / refine-mv=0 / refine-ctu-distortion=0 / no-limit-sao / ctu-info=0 / no-lowpass-dct / refine-analysis-type=0 / copy-pic=1 / max-ausize-factor=1.0 / no-dynamic-refine / no-single-sei / no-hevc-aq / no-svt / no-field / qp-adaptation-range=1.00
Default                                  : Yes
Forced                                   : No

Audio #1
ID                                       : 4
Format                                   : AAC LC
Format/Info                              : Advanced Audio Codec Low Complexity
Codec ID                                 : A_AAC-2
Duration                                 : 23 min 41 s
Bit rate                                 : 662 kb/s
Channel(s)                               : 6 channels
Channel layout                           : C L R Ls Rs LFE
Sampling rate                            : 48.0 kHz
Frame rate                               : 46.875 FPS (1024 SPF)
Compression mode                         : Lossy
Delay relative to video                  : 20 ms
Stream size                              : 110 MiB (22%)
Language                                 : English
Default                                  : Yes
Forced                                   : No

Audio #2
ID                                       : 5
Format                                   : AAC LC
Format/Info                              : Advanced Audio Codec Low Complexity
Codec ID                                 : A_AAC-2
Duration                                 : 23 min 41 s
Bit rate                                 : 265 kb/s
Channel(s)                               : 2 channels
Channel layout                           : L R
Sampling rate                            : 48.0 kHz
Frame rate                               : 46.875 FPS (1024 SPF)
Compression mode                         : Lossy
Delay relative to video                  : 20 ms
Stream size                              : 44.9 MiB (9%)
Language                                 : Japanese
Default                                  : No
Forced                                   : No

Text #1
ID                                       : 2
Format                                   : ASS
Codec ID                                 : S_TEXT/ASS
Codec ID/Info                            : Advanced Sub Station Alpha
Duration                                 : 22 min 48 s
Bit rate                                 : 55 b/s
Count of elements                        : 87
Compression mode                         : Lossless
Stream size                              : 9.27 KiB (0%)
Language                                 : English
Default                                  : Yes
Forced                                   : No

Text #2
ID                                       : 3
Format                                   : ASS
Codec ID                                 : S_TEXT/ASS
Codec ID/Info                            : Advanced Sub Station Alpha
Duration                                 : 23 min 38 s
Bit rate                                 : 179 b/s
Count of elements                        : 470
Compression mode                         : Lossless
Stream size                              : 31.1 KiB (0%)
Language                                 : English
Default                                  : No
Forced                                   : No

Menu
00:00:00.000                             : en:Avant
00:00:51.009                             : en:OP
00:02:21.016                             : en:Part A
00:12:46.057                             : en:Part B
00:21:55.022                             : en:ED
00:23:25.029                             : en:Next

Other Files in this Torrent
[Prof] Episode 18 - Kill the Demon.mkv
beta
Anime DDL+NZB mirror
Current Time: 24/06/2024 04:27



About/FAQs

Discord