Pokémon.Concierge.S01E03.I.Hope.I.Can.Evolve.Too.1080p.NF.WEB-DL.DDP5.1.H.264-Waves.mkv


File Size2.766 GB (2,969,982,195 bytes)
DownloadClickNUpload: Part1, Part2
DailyUploads: Part1, Part2, Part3
DownloadGG: Part1, Part2, Part3
GoFile: Part1, Part2
KrakenFiles: Part1, Part2, Part3
MdiaLoad: Part1, Part2
MultiUp: Part1
  • BdUpload
  • DownAce
  • Fichier
  • FileCloud
  • Filerio
  • FilesCdn
  • IndiShare
  • Kbagi
  • Turbobit
  • UpToBox
  • Uppit
, Part2
  • BdUpload
  • DownAce
  • Fichier
  • FileCloud
  • Filerio
  • FilesCdn
  • IndiShare
  • Kbagi
  • Turbobit
  • UpToBox
  • Uppit
, Part3
  • BdUpload
  • DownAce
  • Fichier
  • FileCloud
  • Filerio
  • FilesCdn
  • IndiShare
  • Kbagi
  • Turbobit
  • UpToBox
  • Uppit
, Part4
  • BdUpload
  • DownAce
  • Fichier
  • FileCloud
  • Filerio
  • FilesCdn
  • IndiShare
  • Kbagi
  • Turbobit
  • UpToBox
  • Uppit
, Part5
  • BdUpload
  • DownAce
  • Fichier
  • FileCloud
  • Filerio
  • FilesCdn
  • IndiShare
  • Kbagi
  • Turbobit
  • UpToBox
  • Uppit
, Part6
  • BdUpload
  • DownAce
  • Fichier
  • FileCloud
  • Filerio
  • FilesCdn
  • IndiShare
  • Kbagi
  • Turbobit
  • UpToBox
  • Uppit

Uppit: Part1, Part2, Part3
HashesCRC32: 5FDD795C, MD5: DF8FFFDF253211B4708315AD575F73B5, SHA1: 8F9CBD10DE4AE2B52598DF7842834F767E310FCA, SHA256: C5A1E871AD4085F9F7AA08D75D22573D65F938FBF2544B547EFCBE70A2E46F26, ED2K: A8894E5755A5B531C8363EC2EE1BDBCF
Screenshots
screenshotscreenshotscreenshotscreenshotscreenshot
SubtitlesAll Attachments | Arabic [ara, SRT], Chinese (Simplified) [chi, SRT], Chinese (Traditional) [chi, SRT], Chinese (Traditional) [chi, SRT], Croatian [hrv, SRT], Croatian [hrv, SRT], Czech [Forced] [cze, SRT], Czech [cze, SRT], Czech [cze, SRT], Danish [dan, SRT], Dutch [dut, SRT], Dutch [dut, SRT], English [SDH] [eng, SRT], English [eng, SRT], English [eng, SRT], Filipino [fil, SRT], Finnish [fin, SRT], Finnish [fin, SRT], French [Forced] [fre, SRT], French [SDH] [fre, SRT], French [fre, SRT], French [fre, SRT], German [SDH] [ger, SRT], German [ger, SRT], German [ger, SRT], Greek [Forced] [gre, SRT], Greek [gre, SRT], Greek [gre, SRT], Hebrew [Forced] [heb, SRT], Hebrew [heb, SRT], Hindi (Latin) [Forced] [hin, SRT], Hungarian [Forced] [hun, SRT], Hungarian [hun, SRT], Hungarian [hun, SRT], Indonesian [ind, SRT], Indonesian [ind, SRT], Italian [Forced] [ita, SRT], Italian [ita, SRT], Italian [ita, SRT], Japanese [SDH] [jpn, SRT], Korean [Forced] [kor, SRT], Korean [kor, SRT], Korean [kor, SRT], Malay [Forced] [may, SRT], Malay [may, SRT], Malay [may, SRT], Norwegian Bokmål [nob, SRT], Norwegian Bokmål [nob, SRT], Polish [pol, SRT], Portuguese (Brazil) [por, SRT], Portuguese (Brazil) [por, SRT], Portuguese [Forced] [por, SRT], Portuguese [por, SRT], Portuguese [por, SRT], Romanian [Forced] [rum, SRT], Romanian [rum, SRT], Romanian [rum, SRT], Russian [rus, SRT], Spanish (Latin America) [SDH] [spa, SRT], Spanish (Latin America) [spa, SRT], Spanish (Latin America) [spa, SRT], Spanish (Spain) [spa, SRT], Spanish (Spain) [spa, SRT], Swedish [swe, SRT], Swedish [swe, SRT], Tamil [Forced] [tam, SRT], Telugu [Forced] [tel, SRT], Thai [Forced] [tha, SRT], Thai [tha, SRT], Thai [tha, SRT], Turkish [tur, SRT], Turkish [tur, SRT], Ukrainian [ukr, SRT], Ukrainian [ukr, SRT], Vietnamese [vie, SRT], Vietnamese [vie, SRT]
Additional Info
General
Unique ID                                : 61130858144097400549000844638267083104 (0x2DFD60017AD6BA72EBC8A1EE80538960)
Complete name                            : Pokémon.Concierge.S01E03.I.Hope.I.Can.Evolve.Too.1080p.NF.WEB-DL.DDP5.1.H.264-Waves.mkv
Format                                   : Matroska
Format version                           : Version 4
File size                                : 2.77 GiB
Duration                                 : 14 min 50 s
Overall bit rate mode                    : Variable
Overall bit rate                         : 26.7 Mb/s
Frame rate                               : 24.000 FPS
Encoded date                             : 2023-12-28 09:54:08 UTC
Writing application                      : mkvmerge v76.0 ('Celebration') 64-bit
Writing library                          : libebml v1.4.4 + libmatroska v1.7.1 / Lavf60.3.100

Video
ID                                       : 1
Format                                   : AVC
Format/Info                              : Advanced Video Codec
Format profile                           : Main@L4
Format settings                          : CABAC / 3 Ref Frames
Format settings, CABAC                   : Yes
Format settings, Reference frames        : 3 frames
Codec ID                                 : V_MPEG4/ISO/AVC
Duration                                 : 14 min 50 s
Bit rate mode                            : Variable
Bit rate                                 : 4 251 kb/s
Nominal bit rate                         : 5 000 kb/s
Maximum bit rate                         : 7 500 kb/s
Width                                    : 1 920 pixels
Height                                   : 1 080 pixels
Display aspect ratio                     : 16:9
Frame rate mode                          : Constant
Frame rate                               : 24.000 FPS
Color space                              : YUV
Chroma subsampling                       : 4:2:0
Bit depth                                : 8 bits
Scan type                                : Progressive
Bits/(Pixel*Frame)                       : 0.085
Stream size                              : 451 MiB (16%)
Writing library                          : x264 core 148 r2727 7d026e8
Encoding settings                        : cabac=1 / ref=3 / deblock=1:0:0 / analyse=0x1:0x111 / me=umh / subme=10 / psy=1 / psy_rd=1.00:0.00 / mixed_ref=1 / me_range=24 / chroma_me=1 / trellis=2 / 8x8dct=0 / cqm=0 / deadzone=21,11 / fast_pskip=1 / chroma_qp_offset=-2 / threads=6 / lookahead_threads=1 / sliced_threads=0 / nr=0 / decimate=1 / interlaced=0 / bluray_compat=0 / stitchable=1 / constrained_intra=0 / bframes=2 / b_pyramid=0 / b_adapt=2 / b_bias=0 / direct=3 / weightb=1 / open_gop=0 / weightp=2 / keyint=240 / keyint_min=121 / scenecut=0 / intra_refresh=0 / rc_lookahead=48 / rc=2pass / mbtree=1 / bitrate=5000 / ratetol=1.0 / qcomp=0.50 / qpmin=6 / qpmax=51 / qpstep=4 / cplxblur=20.0 / qblur=0.5 / vbv_maxrate=7500 / vbv_bufsize=10000 / nal_hrd=vbr / filler=0 / ip_ratio=1.40 / aq=1:1.00
Default                                  : Yes
Forced                                   : No

Audio #1
ID                                       : 2
Format                                   : E-AC-3
Format/Info                              : Enhanced AC-3
Commercial name                          : Dolby Digital Plus
Codec ID                                 : A_EAC3
Duration                                 : 14 min 50 s
Bit rate mode                            : Constant
Bit rate                                 : 640 kb/s
Channel(s)                               : 6 channels
Channel layout                           : L R C LFE Ls Rs
Sampling rate                            : 48.0 kHz
Frame rate                               : 31.250 FPS (1536 SPF)
Compression mode                         : Lossy
Stream size                              : 68.0 MiB (2%)
Title                                    : Arabic
Language                                 : Arabic
Service kind                             : Complete Main
Default                                  : Yes
Forced                                   : No

Audio #2
ID                                       : 3
Format                                   : E-AC-3
Format/Info                              : Enhanced AC-3
Commercial name                          : Dolby Digital Plus
Codec ID                                 : A_EAC3
Duration                                 : 14 min 50 s
Bit rate mode                            : Constant
Bit rate                                 : 640 kb/s
Channel(s)                               : 6 channels
Channel layout                           : L R C LFE Ls Rs
Sampling rate                            : 48.0 kHz
Frame rate                               : 31.250 FPS (1536 SPF)
Compression mode                         : Lossy
Stream size                              : 68.0 MiB (2%)
Title                                    : Chinese (Taiwan)
Language                                 : Chinese (Taiwan)
Service kind                             : Complete Main
Default                                  : No
Forced                                   : No

Audio #3
ID                                       : 4
Format                                   : E-AC-3
Format/Info                              : Enhanced AC-3
Commercial name                          : Dolby Digital Plus
Codec ID                                 : A_EAC3
Duration                                 : 14 min 50 s
Bit rate mode                            : Constant
Bit rate                                 : 640 kb/s
Channel(s)                               : 6 channels
Channel layout                           : L R C LFE Ls Rs
Sampling rate                            : 48.0 kHz
Frame rate                               : 31.250 FPS (1536 SPF)
Compression mode                         : Lossy
Stream size                              : 68.0 MiB (2%)
Title                                    : Croatian
Language                                 : Croatian
Service kind                             : Complete Main
Default                                  : No
Forced                                   : No

Audio #4
ID                                       : 5
Format                                   : E-AC-3
Format/Info                              : Enhanced AC-3
Commercial name                          : Dolby Digital Plus
Codec ID                                 : A_EAC3
Duration                                 : 14 min 50 s
Bit rate mode                            : Constant
Bit rate                                 : 640 kb/s
Channel(s)                               : 6 channels
Channel layout                           : L R C LFE Ls Rs
Sampling rate                            : 48.0 kHz
Frame rate                               : 31.250 FPS (1536 SPF)
Compression mode                         : Lossy
Stream size                              : 68.0 MiB (2%)
Title                                    : Czech
Language                                 : Czech
Service kind                             : Complete Main
Default                                  : No
Forced                                   : No

Audio #5
ID                                       : 6
Format                                   : E-AC-3
Format/Info                              : Enhanced AC-3
Commercial name                          : Dolby Digital Plus
Codec ID                                 : A_EAC3
Duration                                 : 14 min 50 s
Bit rate mode                            : Constant
Bit rate                                 : 640 kb/s
Channel(s)                               : 6 channels
Channel layout                           : L R C LFE Ls Rs
Sampling rate                            : 48.0 kHz
Frame rate                               : 31.250 FPS (1536 SPF)
Compression mode                         : Lossy
Stream size                              : 68.0 MiB (2%)
Title                                    : Danish
Language                                 : Danish
Service kind                             : Complete Main
Default                                  : No
Forced                                   : No

Audio #6
ID                                       : 7
Format                                   : E-AC-3
Format/Info                              : Enhanced AC-3
Commercial name                          : Dolby Digital Plus
Codec ID                                 : A_EAC3
Duration                                 : 14 min 50 s
Bit rate mode                            : Constant
Bit rate                                 : 640 kb/s
Channel(s)                               : 6 channels
Channel layout                           : L R C LFE Ls Rs
Sampling rate                            : 48.0 kHz
Frame rate                               : 31.250 FPS (1536 SPF)
Compression mode                         : Lossy
Stream size                              : 68.0 MiB (2%)
Title                                    : Dutch
Language                                 : Dutch
Service kind                             : Complete Main
Default                                  : No
Forced                                   : No

Audio #7
ID                                       : 8
Format                                   : E-AC-3
Format/Info                              : Enhanced AC-3
Commercial name                          : Dolby Digital Plus
Codec ID                                 : A_EAC3
Duration                                 : 14 min 50 s
Bit rate mode                            : Constant
Bit rate                                 : 640 kb/s
Channel(s)                               : 6 channels
Channel layout                           : L R C LFE Ls Rs
Sampling rate                            : 48.0 kHz
Frame rate                               : 31.250 FPS (1536 SPF)
Compression mode                         : Lossy
Stream size                              : 68.0 MiB (2%)
Title                                    : English
Language                                 : English
Service kind                             : Complete Main
Default                                  : No
Forced                                   : No

Audio #8
ID                                       : 9
Format                                   : E-AC-3
Format/Info                              : Enhanced AC-3
Commercial name                          : Dolby Digital Plus
Codec ID                                 : A_EAC3
Duration                                 : 14 min 50 s
Bit rate mode                            : Constant
Bit rate                                 : 640 kb/s
Channel(s)                               : 6 channels
Channel layout                           : L R C LFE Ls Rs
Sampling rate                            : 48.0 kHz
Frame rate                               : 31.250 FPS (1536 SPF)
Compression mode                         : Lossy
Stream size                              : 68.0 MiB (2%)
Title                                    : Finnish
Language                                 : Finnish
Service kind                             : Complete Main
Default                                  : No
Forced                                   : No

Audio #9
ID                                       : 10
Format                                   : E-AC-3
Format/Info                              : Enhanced AC-3
Commercial name                          : Dolby Digital Plus
Codec ID                                 : A_EAC3
Duration                                 : 14 min 50 s
Bit rate mode                            : Constant
Bit rate                                 : 640 kb/s
Channel(s)                               : 6 channels
Channel layout                           : L R C LFE Ls Rs
Sampling rate                            : 48.0 kHz
Frame rate                               : 31.250 FPS (1536 SPF)
Compression mode                         : Lossy
Stream size                              : 68.0 MiB (2%)
Title                                    : French
Language                                 : French
Service kind                             : Complete Main
Default                                  : No
Forced                                   : No

Audio #10
ID                                       : 11
Format                                   : E-AC-3
Format/Info                              : Enhanced AC-3
Commercial name                          : Dolby Digital Plus
Codec ID                                 : A_EAC3
Duration                                 : 14 min 50 s
Bit rate mode                            : Constant
Bit rate                                 : 640 kb/s
Channel(s)                               : 6 channels
Channel layout                           : L R C LFE Ls Rs
Sampling rate                            : 48.0 kHz
Frame rate                               : 31.250 FPS (1536 SPF)
Compression mode                         : Lossy
Stream size                              : 68.0 MiB (2%)
Title                                    : German
Language                                 : German
Service kind                             : Complete Main
Default                                  : No
Forced                                   : No

Audio #11
ID                                       : 12
Format                                   : E-AC-3
Format/Info                              : Enhanced AC-3
Commercial name                          : Dolby Digital Plus
Codec ID                                 : A_EAC3
Duration                                 : 14 min 50 s
Bit rate mode                            : Constant
Bit rate                                 : 640 kb/s
Channel(s)                               : 6 channels
Channel layout                           : L R C LFE Ls Rs
Sampling rate                            : 48.0 kHz
Frame rate                               : 31.250 FPS (1536 SPF)
Compression mode                         : Lossy
Stream size                              : 68.0 MiB (2%)
Title                                    : Greek
Language                                 : Greek
Service kind                             : Complete Main
Default                                  : No
Forced                                   : No

Audio #12
ID                                       : 13
Format                                   : E-AC-3
Format/Info                              : Enhanced AC-3
Commercial name                          : Dolby Digital Plus
Codec ID                                 : A_EAC3
Duration                                 : 14 min 50 s
Bit rate mode                            : Constant
Bit rate                                 : 640 kb/s
Channel(s)                               : 6 channels
Channel layout                           : L R C LFE Ls Rs
Sampling rate                            : 48.0 kHz
Frame rate                               : 31.250 FPS (1536 SPF)
Compression mode                         : Lossy
Stream size                              : 68.0 MiB (2%)
Title                                    : Hebrew
Language                                 : Hebrew
Service kind                             : Complete Main
Default                                  : No
Forced                                   : No

Audio #13
ID                                       : 14
Format                                   : E-AC-3
Format/Info                              : Enhanced AC-3
Commercial name                          : Dolby Digital Plus
Codec ID                                 : A_EAC3
Duration                                 : 14 min 50 s
Bit rate mode                            : Constant
Bit rate                                 : 640 kb/s
Channel(s)                               : 6 channels
Channel layout                           : L R C LFE Ls Rs
Sampling rate                            : 48.0 kHz
Frame rate                               : 31.250 FPS (1536 SPF)
Compression mode                         : Lossy
Stream size                              : 68.0 MiB (2%)
Title                                    : Hindi
Language                                 : Hindi
Service kind                             : Complete Main
Default                                  : No
Forced                                   : No

Audio #14
ID                                       : 15
Format                                   : E-AC-3
Format/Info                              : Enhanced AC-3
Commercial name                          : Dolby Digital Plus
Codec ID                                 : A_EAC3
Duration                                 : 14 min 50 s
Bit rate mode                            : Constant
Bit rate                                 : 640 kb/s
Channel(s)                               : 6 channels
Channel layout                           : L R C LFE Ls Rs
Sampling rate                            : 48.0 kHz
Frame rate                               : 31.250 FPS (1536 SPF)
Compression mode                         : Lossy
Stream size                              : 68.0 MiB (2%)
Title                                    : Hungarian
Language                                 : Hungarian
Service kind                             : Complete Main
Default                                  : No
Forced                                   : No

Audio #15
ID                                       : 16
Format                                   : E-AC-3
Format/Info                              : Enhanced AC-3
Commercial name                          : Dolby Digital Plus
Codec ID                                 : A_EAC3
Duration                                 : 14 min 50 s
Bit rate mode                            : Constant
Bit rate                                 : 640 kb/s
Channel(s)                               : 6 channels
Channel layout                           : L R C LFE Ls Rs
Sampling rate                            : 48.0 kHz
Frame rate                               : 31.250 FPS (1536 SPF)
Compression mode                         : Lossy
Stream size                              : 68.0 MiB (2%)
Title                                    : Indonesian
Language                                 : Indonesian
Service kind                             : Complete Main
Default                                  : No
Forced                                   : No

Audio #16
ID                                       : 17
Format                                   : E-AC-3
Format/Info                              : Enhanced AC-3
Commercial name                          : Dolby Digital Plus
Codec ID                                 : A_EAC3
Duration                                 : 14 min 50 s
Bit rate mode                            : Constant
Bit rate                                 : 640 kb/s
Channel(s)                               : 6 channels
Channel layout                           : L R C LFE Ls Rs
Sampling rate                            : 48.0 kHz
Frame rate                               : 31.250 FPS (1536 SPF)
Compression mode                         : Lossy
Stream size                              : 68.0 MiB (2%)
Title                                    : Italian
Language                                 : Italian
Service kind                             : Complete Main
Default                                  : No
Forced                                   : No

Audio #17
ID                                       : 18
Format                                   : E-AC-3
Format/Info                              : Enhanced AC-3
Commercial name                          : Dolby Digital Plus
Codec ID                                 : A_EAC3
Duration                                 : 14 min 50 s
Bit rate mode                            : Constant
Bit rate                                 : 640 kb/s
Channel(s)                               : 6 channels
Channel layout                           : L R C LFE Ls Rs
Sampling rate                            : 48.0 kHz
Frame rate                               : 31.250 FPS (1536 SPF)
Compression mode                         : Lossy
Stream size                              : 68.0 MiB (2%)
Title                                    : Japanese
Language                                 : Japanese
Service kind                             : Complete Main
Default                                  : No
Forced                                   : No

Audio #18
ID                                       : 19
Format                                   : E-AC-3
Format/Info                              : Enhanced AC-3
Commercial name                          : Dolby Digital Plus
Codec ID                                 : A_EAC3
Duration                                 : 14 min 50 s
Bit rate mode                            : Constant
Bit rate                                 : 640 kb/s
Channel(s)                               : 6 channels
Channel layout                           : L R C LFE Ls Rs
Sampling rate                            : 48.0 kHz
Frame rate                               : 31.250 FPS (1536 SPF)
Compression mode                         : Lossy
Stream size                              : 68.0 MiB (2%)
Title                                    : Japanese [Audio Description]
Language                                 : Japanese
Service kind                             : Complete Main
Default                                  : No
Forced                                   : No

Audio #19
ID                                       : 20
Format                                   : E-AC-3
Format/Info                              : Enhanced AC-3
Commercial name                          : Dolby Digital Plus
Codec ID                                 : A_EAC3
Duration                                 : 14 min 50 s
Bit rate mode                            : Constant
Bit rate                                 : 640 kb/s
Channel(s)                               : 6 channels
Channel layout                           : L R C LFE Ls Rs
Sampling rate                            : 48.0 kHz
Frame rate                               : 31.250 FPS (1536 SPF)
Compression mode                         : Lossy
Stream size                              : 68.0 MiB (2%)
Title                                    : Korean
Language                                 : Korean
Service kind                             : Complete Main
Default                                  : No
Forced                                   : No

Audio #20
ID                                       : 21
Format                                   : E-AC-3
Format/Info                              : Enhanced AC-3
Commercial name                          : Dolby Digital Plus
Codec ID                                 : A_EAC3
Duration                                 : 14 min 50 s
Bit rate mode                            : Constant
Bit rate                                 : 640 kb/s
Channel(s)                               : 6 channels
Channel layout                           : L R C LFE Ls Rs
Sampling rate                            : 48.0 kHz
Frame rate                               : 31.250 FPS (1536 SPF)
Compression mode                         : Lossy
Stream size                              : 68.0 MiB (2%)
Title                                    : Malay
Language                                 : Malay
Service kind                             : Complete Main
Default                                  : No
Forced                                   : No

Audio #21
ID                                       : 22
Format                                   : E-AC-3
Format/Info                              : Enhanced AC-3
Commercial name                          : Dolby Digital Plus
Codec ID                                 : A_EAC3
Duration                                 : 14 min 50 s
Bit rate mode                            : Constant
Bit rate                                 : 640 kb/s
Channel(s)                               : 6 channels
Channel layout                           : L R C LFE Ls Rs
Sampling rate                            : 48.0 kHz
Frame rate                               : 31.250 FPS (1536 SPF)
Compression mode                         : Lossy
Stream size                              : 68.0 MiB (2%)
Title                                    : Norwegian Bokmål
Language                                 : Norwegian Bokmal
Service kind                             : Complete Main
Default                                  : No
Forced                                   : No

Audio #22
ID                                       : 23
Format                                   : E-AC-3
Format/Info                              : Enhanced AC-3
Commercial name                          : Dolby Digital Plus
Codec ID                                 : A_EAC3
Duration                                 : 14 min 50 s
Bit rate mode                            : Constant
Bit rate                                 : 640 kb/s
Channel(s)                               : 6 channels
Channel layout                           : L R C LFE Ls Rs
Sampling rate                            : 48.0 kHz
Frame rate                               : 31.250 FPS (1536 SPF)
Compression mode                         : Lossy
Stream size                              : 68.0 MiB (2%)
Title                                    : Polish
Language                                 : Polish
Service kind                             : Complete Main
Default                                  : No
Forced                                   : No

Audio #23
ID                                       : 24
Format                                   : E-AC-3
Format/Info                              : Enhanced AC-3
Commercial name                          : Dolby Digital Plus
Codec ID                                 : A_EAC3
Duration                                 : 14 min 50 s
Bit rate mode                            : Constant
Bit rate                                 : 640 kb/s
Channel(s)                               : 6 channels
Channel layout                           : L R C LFE Ls Rs
Sampling rate                            : 48.0 kHz
Frame rate                               : 31.250 FPS (1536 SPF)
Compression mode                         : Lossy
Stream size                              : 68.0 MiB (2%)
Title                                    : Portuguese (Brazil)
Language                                 : Portuguese (BR)
Service kind                             : Complete Main
Default                                  : No
Forced                                   : No

Audio #24
ID                                       : 25
Format                                   : E-AC-3
Format/Info                              : Enhanced AC-3
Commercial name                          : Dolby Digital Plus
Codec ID                                 : A_EAC3
Duration                                 : 14 min 50 s
Bit rate mode                            : Constant
Bit rate                                 : 640 kb/s
Channel(s)                               : 6 channels
Channel layout                           : L R C LFE Ls Rs
Sampling rate                            : 48.0 kHz
Frame rate                               : 31.250 FPS (1536 SPF)
Compression mode                         : Lossy
Stream size                              : 68.0 MiB (2%)
Title                                    : Portuguese
Language                                 : Portuguese
Service kind                             : Complete Main
Default                                  : No
Forced                                   : No

Audio #25
ID                                       : 26
Format                                   : E-AC-3
Format/Info                              : Enhanced AC-3
Commercial name                          : Dolby Digital Plus
Codec ID                                 : A_EAC3
Duration                                 : 14 min 50 s
Bit rate mode                            : Constant
Bit rate                                 : 640 kb/s
Channel(s)                               : 6 channels
Channel layout                           : L R C LFE Ls Rs
Sampling rate                            : 48.0 kHz
Frame rate                               : 31.250 FPS (1536 SPF)
Compression mode                         : Lossy
Stream size                              : 68.0 MiB (2%)
Title                                    : Romanian
Language                                 : Romanian
Service kind                             : Complete Main
Default                                  : No
Forced                                   : No

Audio #26
ID                                       : 27
Format                                   : E-AC-3
Format/Info                              : Enhanced AC-3
Commercial name                          : Dolby Digital Plus
Codec ID                                 : A_EAC3
Duration                                 : 14 min 50 s
Bit rate mode                            : Constant
Bit rate                                 : 640 kb/s
Channel(s)                               : 6 channels
Channel layout                           : L R C LFE Ls Rs
Sampling rate                            : 48.0 kHz
Frame rate                               : 31.250 FPS (1536 SPF)
Compression mode                         : Lossy
Stream size                              : 68.0 MiB (2%)
Title                                    : Spanish (Latin America)
Language                                 : Spanish (Latin America)
Service kind                             : Complete Main
Default                                  : No
Forced                                   : No

Audio #27
ID                                       : 28
Format                                   : E-AC-3
Format/Info                              : Enhanced AC-3
Commercial name                          : Dolby Digital Plus
Codec ID                                 : A_EAC3
Duration                                 : 14 min 50 s
Bit rate mode                            : Constant
Bit rate                                 : 640 kb/s
Channel(s)                               : 6 channels
Channel layout                           : L R C LFE Ls Rs
Sampling rate                            : 48.0 kHz
Frame rate                               : 31.250 FPS (1536 SPF)
Compression mode                         : Lossy
Stream size                              : 68.0 MiB (2%)
Title                                    : Spanish (Latin America) [Audio Description]
Language                                 : Spanish (Latin America)
Service kind                             : Complete Main
Default                                  : No
Forced                                   : No

Audio #28
ID                                       : 29
Format                                   : E-AC-3
Format/Info                              : Enhanced AC-3
Commercial name                          : Dolby Digital Plus
Codec ID                                 : A_EAC3
Duration                                 : 14 min 50 s
Bit rate mode                            : Constant
Bit rate                                 : 640 kb/s
Channel(s)                               : 6 channels
Channel layout                           : L R C LFE Ls Rs
Sampling rate                            : 48.0 kHz
Frame rate                               : 31.250 FPS (1536 SPF)
Compression mode                         : Lossy
Stream size                              : 68.0 MiB (2%)
Title                                    : Spanish (Spain)
Language                                 : Spanish (ES)
Service kind                             : Complete Main
Default                                  : No
Forced                                   : No

Audio #29
ID                                       : 30
Format                                   : E-AC-3
Format/Info                              : Enhanced AC-3
Commercial name                          : Dolby Digital Plus
Codec ID                                 : A_EAC3
Duration                                 : 14 min 50 s
Bit rate mode                            : Constant
Bit rate                                 : 640 kb/s
Channel(s)                               : 6 channels
Channel layout                           : L R C LFE Ls Rs
Sampling rate                            : 48.0 kHz
Frame rate                               : 31.250 FPS (1536 SPF)
Compression mode                         : Lossy
Stream size                              : 68.0 MiB (2%)
Title                                    : Swedish
Language                                 : Swedish
Service kind                             : Complete Main
Default                                  : No
Forced                                   : No

Audio #30
ID                                       : 31
Format                                   : E-AC-3
Format/Info                              : Enhanced AC-3
Commercial name                          : Dolby Digital Plus
Codec ID                                 : A_EAC3
Duration                                 : 14 min 50 s
Bit rate mode                            : Constant
Bit rate                                 : 640 kb/s
Channel(s)                               : 6 channels
Channel layout                           : L R C LFE Ls Rs
Sampling rate                            : 48.0 kHz
Frame rate                               : 31.250 FPS (1536 SPF)
Compression mode                         : Lossy
Stream size                              : 68.0 MiB (2%)
Title                                    : Tamil
Language                                 : Tamil
Service kind                             : Complete Main
Default                                  : No
Forced                                   : No

Audio #31
ID                                       : 32
Format                                   : E-AC-3
Format/Info                              : Enhanced AC-3
Commercial name                          : Dolby Digital Plus
Codec ID                                 : A_EAC3
Duration                                 : 14 min 50 s
Bit rate mode                            : Constant
Bit rate                                 : 640 kb/s
Channel(s)                               : 6 channels
Channel layout                           : L R C LFE Ls Rs
Sampling rate                            : 48.0 kHz
Frame rate                               : 31.250 FPS (1536 SPF)
Compression mode                         : Lossy
Stream size                              : 68.0 MiB (2%)
Title                                    : Telugu
Language                                 : Telugu
Service kind                             : Complete Main
Default                                  : No
Forced                                   : No

Audio #32
ID                                       : 33
Format                                   : E-AC-3
Format/Info                              : Enhanced AC-3
Commercial name                          : Dolby Digital Plus
Codec ID                                 : A_EAC3
Duration                                 : 14 min 50 s
Bit rate mode                            : Constant
Bit rate                                 : 640 kb/s
Channel(s)                               : 6 channels
Channel layout                           : L R C LFE Ls Rs
Sampling rate                            : 48.0 kHz
Frame rate                               : 31.250 FPS (1536 SPF)
Compression mode                         : Lossy
Stream size                              : 68.0 MiB (2%)
Title                                    : Thai
Language                                 : Thai
Service kind                             : Complete Main
Default                                  : No
Forced                                   : No

Audio #33
ID                                       : 34
Format                                   : E-AC-3
Format/Info                              : Enhanced AC-3
Commercial name                          : Dolby Digital Plus
Codec ID                                 : A_EAC3
Duration                                 : 14 min 50 s
Bit rate mode                            : Constant
Bit rate                                 : 640 kb/s
Channel(s)                               : 6 channels
Channel layout                           : L R C LFE Ls Rs
Sampling rate                            : 48.0 kHz
Frame rate                               : 31.250 FPS (1536 SPF)
Compression mode                         : Lossy
Stream size                              : 68.0 MiB (2%)
Title                                    : Turkish
Language                                 : Turkish
Service kind                             : Complete Main
Default                                  : No
Forced                                   : No

Audio #34
ID                                       : 35
Format                                   : E-AC-3
Format/Info                              : Enhanced AC-3
Commercial name                          : Dolby Digital Plus
Codec ID                                 : A_EAC3
Duration                                 : 14 min 50 s
Bit rate mode                            : Constant
Bit rate                                 : 640 kb/s
Channel(s)                               : 6 channels
Channel layout                           : L R C LFE Ls Rs
Sampling rate                            : 48.0 kHz
Frame rate                               : 31.250 FPS (1536 SPF)
Compression mode                         : Lossy
Stream size                              : 68.0 MiB (2%)
Title                                    : Ukrainian
Language                                 : Ukrainian
Service kind                             : Complete Main
Default                                  : No
Forced                                   : No

Audio #35
ID                                       : 36
Format                                   : E-AC-3
Format/Info                              : Enhanced AC-3
Commercial name                          : Dolby Digital Plus
Codec ID                                 : A_EAC3
Duration                                 : 14 min 50 s
Bit rate mode                            : Constant
Bit rate                                 : 640 kb/s
Channel(s)                               : 6 channels
Channel layout                           : L R C LFE Ls Rs
Sampling rate                            : 48.0 kHz
Frame rate                               : 31.250 FPS (1536 SPF)
Compression mode                         : Lossy
Stream size                              : 68.0 MiB (2%)
Title                                    : Vietnamese
Language                                 : Vietnamese
Service kind                             : Complete Main
Default                                  : No
Forced                                   : No

Text #1
ID                                       : 37
Format                                   : UTF-8
Codec ID                                 : S_TEXT/UTF8
Codec ID/Info                            : UTF-8 Plain Text
Duration                                 : 11 min 39 s
Bit rate                                 : 67 b/s
Frame rate                               : 0.163 FPS
Count of elements                        : 114
Stream size                              : 5.73 KiB (0%)
Title                                    : Arabic
Language                                 : Arabic
Default                                  : Yes
Forced                                   : No

Text #2
ID                                       : 38
Format                                   : UTF-8
Codec ID                                 : S_TEXT/UTF8
Codec ID/Info                            : UTF-8 Plain Text
Duration                                 : 9 min 29 s
Bit rate                                 : 49 b/s
Frame rate                               : 0.198 FPS
Count of elements                        : 113
Stream size                              : 3.46 KiB (0%)
Title                                    : Chinese (Simplified)
Language                                 : Chinese (Simplified)
Default                                  : No
Forced                                   : No

Text #3
ID                                       : 39
Format                                   : UTF-8
Codec ID                                 : S_TEXT/UTF8
Codec ID/Info                            : UTF-8 Plain Text
Duration                                 : 9 min 29 s
Bit rate                                 : 52 b/s
Frame rate                               : 0.198 FPS
Count of elements                        : 113
Stream size                              : 3.68 KiB (0%)
Title                                    : Chinese (Traditional)
Language                                 : Chinese (Traditional)
Default                                  : No
Forced                                   : No

Text #4
ID                                       : 40
Format                                   : UTF-8
Codec ID                                 : S_TEXT/UTF8
Codec ID/Info                            : UTF-8 Plain Text
Duration                                 : 9 min 56 s
Bit rate                                 : 47 b/s
Frame rate                               : 0.183 FPS
Count of elements                        : 109
Stream size                              : 3.44 KiB (0%)
Title                                    : Chinese (Traditional)
Language                                 : Chinese (Traditional)
Default                                  : No
Forced                                   : No

Text #5
ID                                       : 41
Format                                   : UTF-8
Codec ID                                 : S_TEXT/UTF8
Codec ID/Info                            : UTF-8 Plain Text
Duration                                 : 11 min 39 s
Bit rate                                 : 34 b/s
Frame rate                               : 0.160 FPS
Count of elements                        : 112
Stream size                              : 2.95 KiB (0%)
Title                                    : Croatian
Language                                 : Croatian
Default                                  : No
Forced                                   : No

Text #6
ID                                       : 42
Format                                   : UTF-8
Codec ID                                 : S_TEXT/UTF8
Codec ID/Info                            : UTF-8 Plain Text
Duration                                 : 9 min 30 s
Bit rate                                 : 41 b/s
Frame rate                               : 0.216 FPS
Count of elements                        : 123
Stream size                              : 2.90 KiB (0%)
Title                                    : Croatian
Language                                 : Croatian
Default                                  : No
Forced                                   : No

Text #7
ID                                       : 43
Format                                   : UTF-8
Codec ID                                 : S_TEXT/UTF8
Codec ID/Info                            : UTF-8 Plain Text
Duration                                 : 2 min 4 s
Bit rate                                 : 2 b/s
Frame rate                               : 0.016 FPS
Count of elements                        : 2
Stream size                              : 44.0 Bytes (0%)
Title                                    : Czech [Forced]
Language                                 : Czech
Default                                  : No
Forced                                   : Yes

Text #8
ID                                       : 44
Format                                   : UTF-8
Codec ID                                 : S_TEXT/UTF8
Codec ID/Info                            : UTF-8 Plain Text
Duration                                 : 11 min 39 s
Bit rate                                 : 38 b/s
Frame rate                               : 0.163 FPS
Count of elements                        : 114
Stream size                              : 3.31 KiB (0%)
Title                                    : Czech
Language                                 : Czech
Default                                  : No
Forced                                   : No

Text #9
ID                                       : 45
Format                                   : UTF-8
Codec ID                                 : S_TEXT/UTF8
Codec ID/Info                            : UTF-8 Plain Text
Duration                                 : 9 min 29 s
Bit rate                                 : 49 b/s
Frame rate                               : 0.176 FPS
Count of elements                        : 100
Stream size                              : 3.45 KiB (0%)
Title                                    : Czech
Language                                 : Czech
Default                                  : No
Forced                                   : No

Text #10
ID                                       : 46
Format                                   : UTF-8
Codec ID                                 : S_TEXT/UTF8
Codec ID/Info                            : UTF-8 Plain Text
Duration                                 : 11 min 23 s
Bit rate                                 : 42 b/s
Frame rate                               : 0.164 FPS
Count of elements                        : 112
Stream size                              : 3.56 KiB (0%)
Title                                    : Danish
Language                                 : Danish
Default                                  : No
Forced                                   : No

Text #11
ID                                       : 47
Format                                   : UTF-8
Codec ID                                 : S_TEXT/UTF8
Codec ID/Info                            : UTF-8 Plain Text
Duration                                 : 11 min 39 s
Bit rate                                 : 38 b/s
Frame rate                               : 0.163 FPS
Count of elements                        : 114
Stream size                              : 3.28 KiB (0%)
Title                                    : Dutch
Language                                 : Dutch
Default                                  : No
Forced                                   : No

Text #12
ID                                       : 48
Format                                   : UTF-8
Codec ID                                 : S_TEXT/UTF8
Codec ID/Info                            : UTF-8 Plain Text
Duration                                 : 9 min 29 s
Bit rate                                 : 58 b/s
Frame rate                               : 0.179 FPS
Count of elements                        : 102
Stream size                              : 4.03 KiB (0%)
Title                                    : Dutch
Language                                 : Dutch
Default                                  : No
Forced                                   : No

Text #13
ID                                       : 49
Format                                   : UTF-8
Codec ID                                 : S_TEXT/UTF8
Codec ID/Info                            : UTF-8 Plain Text
Duration                                 : 11 min 46 s
Bit rate                                 : 70 b/s
Frame rate                               : 0.294 FPS
Count of elements                        : 208
Stream size                              : 6.08 KiB (0%)
Title                                    : English [SDH]
Language                                 : English
Default                                  : No
Forced                                   : No

Text #14
ID                                       : 50
Format                                   : UTF-8
Codec ID                                 : S_TEXT/UTF8
Codec ID/Info                            : UTF-8 Plain Text
Duration                                 : 9 min 29 s
Bit rate                                 : 57 b/s
Frame rate                               : 0.223 FPS
Count of elements                        : 127
Stream size                              : 3.97 KiB (0%)
Title                                    : English
Language                                 : English
Default                                  : No
Forced                                   : No

Text #15
ID                                       : 51
Format                                   : UTF-8
Codec ID                                 : S_TEXT/UTF8
Codec ID/Info                            : UTF-8 Plain Text
Duration                                 : 9 min 29 s
Bit rate                                 : 52 b/s
Frame rate                               : 0.195 FPS
Count of elements                        : 111
Stream size                              : 3.67 KiB (0%)
Title                                    : English
Language                                 : English
Default                                  : No
Forced                                   : No

Text #16
ID                                       : 52
Format                                   : UTF-8
Codec ID                                 : S_TEXT/UTF8
Codec ID/Info                            : UTF-8 Plain Text
Duration                                 : 11 min 39 s
Bit rate                                 : 43 b/s
Frame rate                               : 0.160 FPS
Count of elements                        : 112
Stream size                              : 3.72 KiB (0%)
Title                                    : Filipino
Language                                 : Filipino
Default                                  : No
Forced                                   : No

Text #17
ID                                       : 53
Format                                   : UTF-8
Codec ID                                 : S_TEXT/UTF8
Codec ID/Info                            : UTF-8 Plain Text
Duration                                 : 11 min 39 s
Bit rate                                 : 41 b/s
Frame rate                               : 0.163 FPS
Count of elements                        : 114
Stream size                              : 3.52 KiB (0%)
Title                                    : Finnish
Language                                 : Finnish
Default                                  : No
Forced                                   : No

Text #18
ID                                       : 54
Format                                   : UTF-8
Codec ID                                 : S_TEXT/UTF8
Codec ID/Info                            : UTF-8 Plain Text
Duration                                 : 9 min 31 s
Bit rate                                 : 57 b/s
Frame rate                               : 0.224 FPS
Count of elements                        : 128
Stream size                              : 4.01 KiB (0%)
Title                                    : Finnish
Language                                 : Finnish
Default                                  : No
Forced                                   : No

Text #19
ID                                       : 55
Format                                   : UTF-8
Codec ID                                 : S_TEXT/UTF8
Codec ID/Info                            : UTF-8 Plain Text
Duration                                 : 1 min 25 s
Bit rate                                 : 4 b/s
Frame rate                               : 0.023 FPS
Count of elements                        : 2
Stream size                              : 45.0 Bytes (0%)
Title                                    : French [Forced]
Language                                 : French
Default                                  : No
Forced                                   : Yes

Text #20
ID                                       : 56
Format                                   : UTF-8
Codec ID                                 : S_TEXT/UTF8
Codec ID/Info                            : UTF-8 Plain Text
Duration                                 : 12 min 8 s
Bit rate                                 : 80 b/s
Frame rate                               : 0.321 FPS
Count of elements                        : 234
Stream size                              : 7.16 KiB (0%)
Title                                    : French [SDH]
Language                                 : French
Default                                  : No
Forced                                   : No

Text #21
ID                                       : 57
Format                                   : UTF-8
Codec ID                                 : S_TEXT/UTF8
Codec ID/Info                            : UTF-8 Plain Text
Duration                                 : 11 min 39 s
Bit rate                                 : 43 b/s
Frame rate                               : 0.163 FPS
Count of elements                        : 114
Stream size                              : 3.71 KiB (0%)
Title                                    : French
Language                                 : French
Default                                  : No
Forced                                   : No

Text #22
ID                                       : 58
Format                                   : UTF-8
Codec ID                                 : S_TEXT/UTF8
Codec ID/Info                            : UTF-8 Plain Text
Duration                                 : 11 min 40 s
Bit rate                                 : 56 b/s
Frame rate                               : 0.201 FPS
Count of elements                        : 141
Stream size                              : 4.83 KiB (0%)
Title                                    : French
Language                                 : French
Default                                  : No
Forced                                   : No

Text #23
ID                                       : 59
Format                                   : UTF-8
Codec ID                                 : S_TEXT/UTF8
Codec ID/Info                            : UTF-8 Plain Text
Duration                                 : 10 min 2 s
Bit rate                                 : 84 b/s
Frame rate                               : 0.322 FPS
Count of elements                        : 194
Stream size                              : 6.23 KiB (0%)
Title                                    : German [SDH]
Language                                 : German
Default                                  : No
Forced                                   : No

Text #24
ID                                       : 60
Format                                   : UTF-8
Codec ID                                 : S_TEXT/UTF8
Codec ID/Info                            : UTF-8 Plain Text
Duration                                 : 11 min 39 s
Bit rate                                 : 44 b/s
Frame rate                               : 0.163 FPS
Count of elements                        : 114
Stream size                              : 3.77 KiB (0%)
Title                                    : German
Language                                 : German
Default                                  : No
Forced                                   : No

Text #25
ID                                       : 61
Format                                   : UTF-8
Codec ID                                 : S_TEXT/UTF8
Codec ID/Info                            : UTF-8 Plain Text
Duration                                 : 9 min 32 s
Bit rate                                 : 60 b/s
Frame rate                               : 0.204 FPS
Count of elements                        : 117
Stream size                              : 4.24 KiB (0%)
Title                                    : German
Language                                 : German
Default                                  : No
Forced                                   : No

Text #26
ID                                       : 62
Format                                   : UTF-8
Codec ID                                 : S_TEXT/UTF8
Codec ID/Info                            : UTF-8 Plain Text
Duration                                 : 3 s 875 ms
Bit rate                                 : 66 b/s
Frame rate                               : 0.258 FPS
Count of elements                        : 1
Stream size                              : 32.0 Bytes (0%)
Title                                    : Greek [Forced]
Language                                 : Greek
Default                                  : No
Forced                                   : Yes

Text #27
ID                                       : 63
Format                                   : UTF-8
Codec ID                                 : S_TEXT/UTF8
Codec ID/Info                            : UTF-8 Plain Text
Duration                                 : 11 min 39 s
Bit rate                                 : 70 b/s
Frame rate                               : 0.163 FPS
Count of elements                        : 114
Stream size                              : 6.06 KiB (0%)
Title                                    : Greek
Language                                 : Greek
Default                                  : No
Forced                                   : No

Text #28
ID                                       : 64
Format                                   : UTF-8
Codec ID                                 : S_TEXT/UTF8
Codec ID/Info                            : UTF-8 Plain Text
Duration                                 : 9 min 29 s
Bit rate                                 : 90 b/s
Frame rate                               : 0.176 FPS
Count of elements                        : 100
Stream size                              : 6.31 KiB (0%)
Title                                    : Greek
Language                                 : Greek
Default                                  : No
Forced                                   : No

Text #29
ID                                       : 65
Format                                   : UTF-8
Codec ID                                 : S_TEXT/UTF8
Codec ID/Info                            : UTF-8 Plain Text
Duration                                 : 2 s 166 ms
Bit rate                                 : 151 b/s
Frame rate                               : 0.462 FPS
Count of elements                        : 1
Stream size                              : 41.0 Bytes (0%)
Title                                    : Hebrew [Forced]
Language                                 : Hebrew
Default                                  : No
Forced                                   : Yes

Text #30
ID                                       : 66
Format                                   : UTF-8
Codec ID                                 : S_TEXT/UTF8
Codec ID/Info                            : UTF-8 Plain Text
Duration                                 : 11 min 39 s
Bit rate                                 : 58 b/s
Frame rate                               : 0.163 FPS
Count of elements                        : 114
Stream size                              : 4.98 KiB (0%)
Title                                    : Hebrew
Language                                 : Hebrew
Default                                  : No
Forced                                   : No

Text #31
ID                                       : 67
Format                                   : UTF-8
Codec ID                                 : S_TEXT/UTF8
Codec ID/Info                            : UTF-8 Plain Text
Duration                                 : 2 s 0 ms
Bit rate                                 : 8 b/s
Frame rate                               : 0.500 FPS
Count of elements                        : 1
Stream size                              : 2.00 Bytes (0%)
Title                                    : Hindi (Latin) [Forced]
Language                                 : Hindi (Latn)
Default                                  : No
Forced                                   : Yes

Text #32
ID                                       : 68
Format                                   : UTF-8
Codec ID                                 : S_TEXT/UTF8
Codec ID/Info                            : UTF-8 Plain Text
Duration                                 : 2 min 4 s
Bit rate                                 : 2 b/s
Frame rate                               : 0.016 FPS
Count of elements                        : 2
Stream size                              : 42.0 Bytes (0%)
Title                                    : Hungarian [Forced]
Language                                 : Hungarian
Default                                  : No
Forced                                   : Yes

Text #33
ID                                       : 69
Format                                   : UTF-8
Codec ID                                 : S_TEXT/UTF8
Codec ID/Info                            : UTF-8 Plain Text
Duration                                 : 11 min 39 s
Bit rate                                 : 41 b/s
Frame rate                               : 0.160 FPS
Count of elements                        : 112
Stream size                              : 3.52 KiB (0%)
Title                                    : Hungarian
Language                                 : Hungarian
Default                                  : No
Forced                                   : No

Text #34
ID                                       : 70
Format                                   : UTF-8
Codec ID                                 : S_TEXT/UTF8
Codec ID/Info                            : UTF-8 Plain Text
Duration                                 : 9 min 29 s
Bit rate                                 : 51 b/s
Frame rate                               : 0.174 FPS
Count of elements                        : 99
Stream size                              : 3.60 KiB (0%)
Title                                    : Hungarian
Language                                 : Hungarian
Default                                  : No
Forced                                   : No

Text #35
ID                                       : 71
Format                                   : UTF-8
Codec ID                                 : S_TEXT/UTF8
Codec ID/Info                            : UTF-8 Plain Text
Duration                                 : 11 min 39 s
Bit rate                                 : 42 b/s
Frame rate                               : 0.162 FPS
Count of elements                        : 113
Stream size                              : 3.60 KiB (0%)
Title                                    : Indonesian
Language                                 : Indonesian
Default                                  : No
Forced                                   : No

Text #36
ID                                       : 72
Format                                   : UTF-8
Codec ID                                 : S_TEXT/UTF8
Codec ID/Info                            : UTF-8 Plain Text
Duration                                 : 9 min 29 s
Bit rate                                 : 52 b/s
Frame rate                               : 0.181 FPS
Count of elements                        : 103
Stream size                              : 3.62 KiB (0%)
Title                                    : Indonesian
Language                                 : Indonesian
Default                                  : No
Forced                                   : No

Text #37
ID                                       : 73
Format                                   : UTF-8
Codec ID                                 : S_TEXT/UTF8
Codec ID/Info                            : UTF-8 Plain Text
Duration                                 : 3 min 25 s
Bit rate                                 : 2 b/s
Frame rate                               : 0.015 FPS
Count of elements                        : 3
Stream size                              : 59.0 Bytes (0%)
Title                                    : Italian [Forced]
Language                                 : Italian
Default                                  : No
Forced                                   : Yes

Text #38
ID                                       : 74
Format                                   : UTF-8
Codec ID                                 : S_TEXT/UTF8
Codec ID/Info                            : UTF-8 Plain Text
Duration                                 : 11 min 39 s
Bit rate                                 : 37 b/s
Frame rate                               : 0.163 FPS
Count of elements                        : 114
Stream size                              : 3.18 KiB (0%)
Title                                    : Italian
Language                                 : Italian
Default                                  : No
Forced                                   : No

Text #39
ID                                       : 75
Format                                   : UTF-8
Codec ID                                 : S_TEXT/UTF8
Codec ID/Info                            : UTF-8 Plain Text
Duration                                 : 9 min 57 s
Bit rate                                 : 50 b/s
Frame rate                               : 0.236 FPS
Count of elements                        : 141
Stream size                              : 3.67 KiB (0%)
Title                                    : Italian
Language                                 : Italian
Default                                  : No
Forced                                   : No

Text #40
ID                                       : 76
Format                                   : UTF-8
Codec ID                                 : S_TEXT/UTF8
Codec ID/Info                            : UTF-8 Plain Text
Duration                                 : 11 min 48 s
Bit rate                                 : 136 b/s
Frame rate                               : 0.294 FPS
Count of elements                        : 208
Stream size                              : 11.8 KiB (0%)
Title                                    : Japanese [SDH]
Language                                 : Japanese
Default                                  : No
Forced                                   : No

Text #41
ID                                       : 77
Format                                   : UTF-8
Codec ID                                 : S_TEXT/UTF8
Codec ID/Info                            : UTF-8 Plain Text
Duration                                 : 2 min 4 s
Bit rate                                 : 3 b/s
Frame rate                               : 0.016 FPS
Count of elements                        : 2
Stream size                              : 50.0 Bytes (0%)
Title                                    : Korean [Forced]
Language                                 : Korean
Default                                  : No
Forced                                   : Yes

Text #42
ID                                       : 78
Format                                   : UTF-8
Codec ID                                 : S_TEXT/UTF8
Codec ID/Info                            : UTF-8 Plain Text
Duration                                 : 9 min 29 s
Bit rate                                 : 52 b/s
Frame rate                               : 0.198 FPS
Count of elements                        : 113
Stream size                              : 3.67 KiB (0%)
Title                                    : Korean
Language                                 : Korean
Default                                  : No
Forced                                   : No

Text #43
ID                                       : 79
Format                                   : UTF-8
Codec ID                                 : S_TEXT/UTF8
Codec ID/Info                            : UTF-8 Plain Text
Duration                                 : 9 min 31 s
Bit rate                                 : 56 b/s
Frame rate                               : 0.285 FPS
Count of elements                        : 163
Stream size                              : 3.98 KiB (0%)
Title                                    : Korean
Language                                 : Korean
Default                                  : No
Forced                                   : No

Text #44
ID                                       : 80
Format                                   : UTF-8
Codec ID                                 : S_TEXT/UTF8
Codec ID/Info                            : UTF-8 Plain Text
Duration                                 : 2 min 4 s
Bit rate                                 : 2 b/s
Frame rate                               : 0.016 FPS
Count of elements                        : 2
Stream size                              : 34.0 Bytes (0%)
Title                                    : Malay [Forced]
Language                                 : Malay
Default                                  : No
Forced                                   : Yes

Text #45
ID                                       : 81
Format                                   : UTF-8
Codec ID                                 : S_TEXT/UTF8
Codec ID/Info                            : UTF-8 Plain Text
Duration                                 : 11 min 39 s
Bit rate                                 : 41 b/s
Frame rate                               : 0.160 FPS
Count of elements                        : 112
Stream size                              : 3.57 KiB (0%)
Title                                    : Malay
Language                                 : Malay
Default                                  : No
Forced                                   : No

Text #46
ID                                       : 82
Format                                   : UTF-8
Codec ID                                 : S_TEXT/UTF8
Codec ID/Info                            : UTF-8 Plain Text
Duration                                 : 9 min 29 s
Bit rate                                 : 51 b/s
Frame rate                               : 0.177 FPS
Count of elements                        : 101
Stream size                              : 3.57 KiB (0%)
Title                                    : Malay
Language                                 : Malay
Default                                  : No
Forced                                   : No

Text #47
ID                                       : 83
Format                                   : UTF-8
Codec ID                                 : S_TEXT/UTF8
Codec ID/Info                            : UTF-8 Plain Text
Duration                                 : 11 min 39 s
Bit rate                                 : 40 b/s
Frame rate                               : 0.163 FPS
Count of elements                        : 114
Stream size                              : 3.47 KiB (0%)
Title                                    : Norwegian Bokmål
Language                                 : Norwegian Bokmal
Default                                  : No
Forced                                   : No

Text #48
ID                                       : 84
Format                                   : UTF-8
Codec ID                                 : S_TEXT/UTF8
Codec ID/Info                            : UTF-8 Plain Text
Duration                                 : 9 min 32 s
Bit rate                                 : 57 b/s
Frame rate                               : 0.175 FPS
Count of elements                        : 100
Stream size                              : 3.99 KiB (0%)
Title                                    : Norwegian Bokmål
Language                                 : Norwegian Bokmal
Default                                  : No
Forced                                   : No

Text #49
ID                                       : 85
Format                                   : UTF-8
Codec ID                                 : S_TEXT/UTF8
Codec ID/Info                            : UTF-8 Plain Text
Duration                                 : 11 min 39 s
Bit rate                                 : 38 b/s
Frame rate                               : 0.163 FPS
Count of elements                        : 114
Stream size                              : 3.29 KiB (0%)
Title                                    : Polish
Language                                 : Polish
Default                                  : No
Forced                                   : No

Text #50
ID                                       : 86
Format                                   : UTF-8
Codec ID                                 : S_TEXT/UTF8
Codec ID/Info                            : UTF-8 Plain Text
Duration                                 : 11 min 39 s
Bit rate                                 : 38 b/s
Frame rate                               : 0.163 FPS
Count of elements                        : 114
Stream size                              : 3.25 KiB (0%)
Title                                    : Portuguese (Brazil)
Language                                 : Portuguese (BR)
Default                                  : No
Forced                                   : No

Text #51
ID                                       : 87
Format                                   : UTF-8
Codec ID                                 : S_TEXT/UTF8
Codec ID/Info                            : UTF-8 Plain Text
Duration                                 : 9 min 30 s
Bit rate                                 : 54 b/s
Frame rate                               : 0.174 FPS
Count of elements                        : 99
Stream size                              : 3.79 KiB (0%)
Title                                    : Portuguese (Brazil)
Language                                 : Portuguese (BR)
Default                                  : No
Forced                                   : No

Text #52
ID                                       : 88
Format                                   : UTF-8
Codec ID                                 : S_TEXT/UTF8
Codec ID/Info                            : UTF-8 Plain Text
Duration                                 : 2 min 4 s
Bit rate                                 : 1 b/s
Frame rate                               : 0.016 FPS
Count of elements                        : 2
Stream size                              : 20.0 Bytes (0%)
Title                                    : Portuguese [Forced]
Language                                 : Portuguese
Default                                  : No
Forced                                   : Yes

Text #53
ID                                       : 89
Format                                   : UTF-8
Codec ID                                 : S_TEXT/UTF8
Codec ID/Info                            : UTF-8 Plain Text
Duration                                 : 11 min 39 s
Bit rate                                 : 41 b/s
Frame rate                               : 0.163 FPS
Count of elements                        : 114
Stream size                              : 3.58 KiB (0%)
Title                                    : Portuguese
Language                                 : Portuguese
Default                                  : No
Forced                                   : No

Text #54
ID                                       : 90
Format                                   : UTF-8
Codec ID                                 : S_TEXT/UTF8
Codec ID/Info                            : UTF-8 Plain Text
Duration                                 : 9 min 29 s
Bit rate                                 : 57 b/s
Frame rate                               : 0.179 FPS
Count of elements                        : 102
Stream size                              : 4.00 KiB (0%)
Title                                    : Portuguese
Language                                 : Portuguese
Default                                  : No
Forced                                   : No

Text #55
ID                                       : 91
Format                                   : UTF-8
Codec ID                                 : S_TEXT/UTF8
Codec ID/Info                            : UTF-8 Plain Text
Duration                                 : 2 s 0 ms
Bit rate                                 : 60 b/s
Frame rate                               : 0.500 FPS
Count of elements                        : 1
Stream size                              : 15.0 Bytes (0%)
Title                                    : Romanian [Forced]
Language                                 : Romanian
Default                                  : No
Forced                                   : Yes

Text #56
ID                                       : 92
Format                                   : UTF-8
Codec ID                                 : S_TEXT/UTF8
Codec ID/Info                            : UTF-8 Plain Text
Duration                                 : 11 min 39 s
Bit rate                                 : 41 b/s
Frame rate                               : 0.160 FPS
Count of elements                        : 112
Stream size                              : 3.58 KiB (0%)
Title                                    : Romanian
Language                                 : Romanian
Default                                  : No
Forced                                   : No

Text #57
ID                                       : 93
Format                                   : UTF-8
Codec ID                                 : S_TEXT/UTF8
Codec ID/Info                            : UTF-8 Plain Text
Duration                                 : 9 min 58 s
Bit rate                                 : 53 b/s
Frame rate                               : 0.177 FPS
Count of elements                        : 106
Stream size                              : 3.88 KiB (0%)
Title                                    : Romanian
Language                                 : Romanian
Default                                  : No
Forced                                   : No

Text #58
ID                                       : 94
Format                                   : UTF-8
Codec ID                                 : S_TEXT/UTF8
Codec ID/Info                            : UTF-8 Plain Text
Duration                                 : 11 min 39 s
Bit rate                                 : 66 b/s
Frame rate                               : 0.163 FPS
Count of elements                        : 114
Stream size                              : 5.72 KiB (0%)
Title                                    : Russian
Language                                 : Russian
Default                                  : No
Forced                                   : No

Text #59
ID                                       : 95
Format                                   : UTF-8
Codec ID                                 : S_TEXT/UTF8
Codec ID/Info                            : UTF-8 Plain Text
Duration                                 : 12 min 6 s
Bit rate                                 : 57 b/s
Frame rate                               : 0.244 FPS
Count of elements                        : 177
Stream size                              : 5.06 KiB (0%)
Title                                    : Spanish (Latin America) [SDH]
Language                                 : Spanish (Latin America)
Default                                  : No
Forced                                   : No

Text #60
ID                                       : 96
Format                                   : UTF-8
Codec ID                                 : S_TEXT/UTF8
Codec ID/Info                            : UTF-8 Plain Text
Duration                                 : 11 min 39 s
Bit rate                                 : 42 b/s
Frame rate                               : 0.162 FPS
Count of elements                        : 113
Stream size                              : 3.67 KiB (0%)
Title                                    : Spanish (Latin America)
Language                                 : Spanish (Latin America)
Default                                  : No
Forced                                   : No

Text #61
ID                                       : 97
Format                                   : UTF-8
Codec ID                                 : S_TEXT/UTF8
Codec ID/Info                            : UTF-8 Plain Text
Duration                                 : 11 min 39 s
Bit rate                                 : 47 b/s
Frame rate                               : 0.187 FPS
Count of elements                        : 131
Stream size                              : 4.01 KiB (0%)
Title                                    : Spanish (Latin America)
Language                                 : Spanish (Latin America)
Default                                  : No
Forced                                   : No

Text #62
ID                                       : 98
Format                                   : UTF-8
Codec ID                                 : S_TEXT/UTF8
Codec ID/Info                            : UTF-8 Plain Text
Duration                                 : 11 min 39 s
Bit rate                                 : 40 b/s
Frame rate                               : 0.163 FPS
Count of elements                        : 114
Stream size                              : 3.47 KiB (0%)
Title                                    : Spanish (Spain)
Language                                 : Spanish (ES)
Default                                  : No
Forced                                   : No

Text #63
ID                                       : 99
Format                                   : UTF-8
Codec ID                                 : S_TEXT/UTF8
Codec ID/Info                            : UTF-8 Plain Text
Duration                                 : 9 min 29 s
Bit rate                                 : 52 b/s
Frame rate                               : 0.172 FPS
Count of elements                        : 98
Stream size                              : 3.62 KiB (0%)
Title                                    : Spanish (Spain)
Language                                 : Spanish (ES)
Default                                  : No
Forced                                   : No

Text #64
ID                                       : 100
Format                                   : UTF-8
Codec ID                                 : S_TEXT/UTF8
Codec ID/Info                            : UTF-8 Plain Text
Duration                                 : 11 min 39 s
Bit rate                                 : 41 b/s
Frame rate                               : 0.163 FPS
Count of elements                        : 114
Stream size                              : 3.57 KiB (0%)
Title                                    : Swedish
Language                                 : Swedish
Default                                  : No
Forced                                   : No

Text #65
ID                                       : 101
Format                                   : UTF-8
Codec ID                                 : S_TEXT/UTF8
Codec ID/Info                            : UTF-8 Plain Text
Duration                                 : 9 min 28 s
Bit rate                                 : 57 b/s
Frame rate                               : 0.141 FPS
Count of elements                        : 80
Stream size                              : 3.99 KiB (0%)
Title                                    : Swedish
Language                                 : Swedish
Default                                  : No
Forced                                   : No

Text #66
ID                                       : 102
Format                                   : UTF-8
Codec ID                                 : S_TEXT/UTF8
Codec ID/Info                            : UTF-8 Plain Text
Duration                                 : 2 min 4 s
Bit rate                                 : 8 b/s
Frame rate                               : 0.016 FPS
Count of elements                        : 2
Stream size                              : 128 Bytes (0%)
Title                                    : Tamil [Forced]
Language                                 : Tamil
Default                                  : No
Forced                                   : Yes

Text #67
ID                                       : 103
Format                                   : UTF-8
Codec ID                                 : S_TEXT/UTF8
Codec ID/Info                            : UTF-8 Plain Text
Duration                                 : 3 min 23 s
Bit rate                                 : 5 b/s
Frame rate                               : 0.015 FPS
Count of elements                        : 3
Stream size                              : 136 Bytes (0%)
Title                                    : Telugu [Forced]
Language                                 : Telugu
Default                                  : No
Forced                                   : Yes

Text #68
ID                                       : 104
Format                                   : UTF-8
Codec ID                                 : S_TEXT/UTF8
Codec ID/Info                            : UTF-8 Plain Text
Duration                                 : 4 s 125 ms
Bit rate                                 : 104 b/s
Frame rate                               : 0.242 FPS
Count of elements                        : 1
Stream size                              : 54.0 Bytes (0%)
Title                                    : Thai [Forced]
Language                                 : Thai
Default                                  : No
Forced                                   : Yes

Text #69
ID                                       : 105
Format                                   : UTF-8
Codec ID                                 : S_TEXT/UTF8
Codec ID/Info                            : UTF-8 Plain Text
Duration                                 : 11 min 39 s
Bit rate                                 : 121 b/s
Frame rate                               : 0.163 FPS
Count of elements                        : 114
Stream size                              : 10.4 KiB (0%)
Title                                    : Thai
Language                                 : Thai
Default                                  : No
Forced                                   : No

Text #70
ID                                       : 106
Format                                   : UTF-8
Codec ID                                 : S_TEXT/UTF8
Codec ID/Info                            : UTF-8 Plain Text
Duration                                 : 9 min 30 s
Bit rate                                 : 119 b/s
Frame rate                               : 0.258 FPS
Count of elements                        : 147
Stream size                              : 8.29 KiB (0%)
Title                                    : Thai
Language                                 : Thai
Default                                  : No
Forced                                   : No

Text #71
ID                                       : 107
Format                                   : UTF-8
Codec ID                                 : S_TEXT/UTF8
Codec ID/Info                            : UTF-8 Plain Text
Duration                                 : 11 min 39 s
Bit rate                                 : 41 b/s
Frame rate                               : 0.163 FPS
Count of elements                        : 114
Stream size                              : 3.58 KiB (0%)
Title                                    : Turkish
Language                                 : Turkish
Default                                  : No
Forced                                   : No

Text #72
ID                                       : 108
Format                                   : UTF-8
Codec ID                                 : S_TEXT/UTF8
Codec ID/Info                            : UTF-8 Plain Text
Duration                                 : 9 min 30 s
Bit rate                                 : 51 b/s
Frame rate                               : 0.174 FPS
Count of elements                        : 99
Stream size                              : 3.61 KiB (0%)
Title                                    : Turkish
Language                                 : Turkish
Default                                  : No
Forced                                   : No

Text #73
ID                                       : 109
Format                                   : UTF-8
Codec ID                                 : S_TEXT/UTF8
Codec ID/Info                            : UTF-8 Plain Text
Duration                                 : 11 min 39 s
Bit rate                                 : 72 b/s
Frame rate                               : 0.163 FPS
Count of elements                        : 114
Stream size                              : 6.18 KiB (0%)
Title                                    : Ukrainian
Language                                 : Ukrainian
Default                                  : No
Forced                                   : No

Text #74
ID                                       : 110
Format                                   : UTF-8
Codec ID                                 : S_TEXT/UTF8
Codec ID/Info                            : UTF-8 Plain Text
Duration                                 : 9 min 56 s
Bit rate                                 : 80 b/s
Frame rate                               : 0.164 FPS
Count of elements                        : 98
Stream size                              : 5.85 KiB (0%)
Title                                    : Ukrainian
Language                                 : Ukrainian
Default                                  : No
Forced                                   : No

Text #75
ID                                       : 111
Format                                   : UTF-8
Codec ID                                 : S_TEXT/UTF8
Codec ID/Info                            : UTF-8 Plain Text
Duration                                 : 11 min 39 s
Bit rate                                 : 49 b/s
Frame rate                               : 0.157 FPS
Count of elements                        : 110
Stream size                              : 4.27 KiB (0%)
Title                                    : Vietnamese
Language                                 : Vietnamese
Default                                  : No
Forced                                   : No

Text #76
ID                                       : 112
Format                                   : UTF-8
Codec ID                                 : S_TEXT/UTF8
Codec ID/Info                            : UTF-8 Plain Text
Duration                                 : 9 min 29 s
Bit rate                                 : 77 b/s
Frame rate                               : 0.186 FPS
Count of elements                        : 106
Stream size                              : 5.37 KiB (0%)
Title                                    : Vietnamese
Language                                 : Vietnamese
Default                                  : No
Forced                                   : No

Menu
00:00:00.000                             : en:Part 1
00:10:10.000                             : en:Credits

Other Files in this Torrent
Pokémon.Concierge.S01E03.I.Hope.I.Can.Evolve.Too.1080p.NF.WEB-DL.DDP5.1.H.264-Waves.mkv
beta
Anime DDL+NZB mirror
Current Time: 14/07/2024 19:38



About/FAQs

Discord