Pokémon.Concierge.S01E01.Im.Haru.the.New.Concierge.1080p.NF.WEB-DL.DDP5.1.H.264-Waves.mkv


File Size3.652 GB (3,921,747,114 bytes)
DownloadClickNUpload: Part1, Part2
DailyUploads: Part1, Part2, Part3, Part4
DownloadGG: Part1, Part2, Part3, Part4
GoFile: Part1, Part2
KrakenFiles: Part1, Part2, Part3, Part4
MdiaLoad: Part1, Part2
MultiUp: Part1
  • BdUpload
  • DownAce
  • Fichier
  • FileCloud
  • Filerio
  • FilesCdn
  • IndiShare
  • Kbagi
  • Turbobit
  • UpToBox
  • Uppit
, Part2
  • BdUpload
  • DownAce
  • Fichier
  • FileCloud
  • Filerio
  • FilesCdn
  • IndiShare
  • Kbagi
  • Turbobit
  • UpToBox
  • Uppit
, Part3
  • BdUpload
  • DownAce
  • Fichier
  • FileCloud
  • Filerio
  • FilesCdn
  • IndiShare
  • Kbagi
  • Turbobit
  • UpToBox
  • Uppit
, Part4
  • BdUpload
  • DownAce
  • Fichier
  • FileCloud
  • Filerio
  • FilesCdn
  • IndiShare
  • Kbagi
  • Turbobit
  • UpToBox
  • Uppit
, Part5
  • BdUpload
  • DownAce
  • Fichier
  • FileCloud
  • Filerio
  • FilesCdn
  • IndiShare
  • Kbagi
  • Turbobit
  • UpToBox
  • Uppit
, Part6
  • BdUpload
  • DownAce
  • Fichier
  • FileCloud
  • Filerio
  • FilesCdn
  • IndiShare
  • Kbagi
  • Turbobit
  • UpToBox
  • Uppit
, Part7
  • BdUpload
  • DownAce
  • Fichier
  • FileCloud
  • Filerio
  • FilesCdn
  • IndiShare
  • Kbagi
  • Turbobit
  • UpToBox
  • Uppit
, Part8
  • BdUpload
  • DownAce
  • Fichier
  • FileCloud
  • Filerio
  • FilesCdn
  • IndiShare
  • Kbagi
  • Turbobit
  • UpToBox
  • Uppit

Uppit: Part1, Part2, Part3, Part4
HashesCRC32: 5909D4CD, MD5: 5630A9B95805E6BF9C0763FDC516DC42, SHA1: 9F89010923CF1862A9C2E2838298A4C3EB4D6CED, SHA256: ABB235BFAC227816D8B2BED57034A32B673E023A19E61BCA0B2F76E8FDB764AE, ED2K: 4395C44B621D1C5BA1EA9BD0EA97B864
Screenshots
screenshotscreenshotscreenshotscreenshotscreenshot
SubtitlesAll Attachments | Arabic [Forced] [ara, SRT], Arabic [ara, SRT], Chinese (Simplified) [chi, SRT], Chinese (Traditional) [chi, SRT], Chinese (Traditional) [chi, SRT], Croatian [hrv, SRT], Croatian [hrv, SRT], Czech [Forced] [cze, SRT], Czech [cze, SRT], Czech [cze, SRT], Danish [dan, SRT], Danish [dan, SRT], Dutch [dut, SRT], Dutch [dut, SRT], English [SDH] [eng, SRT], English [eng, SRT], English [eng, SRT], Filipino [fil, SRT], Finnish [fin, SRT], Finnish [fin, SRT], French [Forced] [fre, SRT], French [SDH] [fre, SRT], French [fre, SRT], French [fre, SRT], German [SDH] [ger, SRT], German [ger, SRT], German [ger, SRT], Greek [Forced] [gre, SRT], Greek [gre, SRT], Greek [gre, SRT], Hebrew [Forced] [heb, SRT], Hebrew [heb, SRT], Hindi (Latin) [Forced] [hin, SRT], Hungarian [Forced] [hun, SRT], Hungarian [hun, SRT], Hungarian [hun, SRT], Indonesian [ind, SRT], Indonesian [ind, SRT], Italian [Forced] [ita, SRT], Italian [ita, SRT], Italian [ita, SRT], Japanese [SDH] [jpn, SRT], Korean [Forced] [kor, SRT], Korean [kor, SRT], Korean [kor, SRT], Malay [Forced] [may, SRT], Malay [may, SRT], Malay [may, SRT], Norwegian Bokmål [nob, SRT], Norwegian Bokmål [nob, SRT], Polish [pol, SRT], Portuguese (Brazil) [por, SRT], Portuguese (Brazil) [por, SRT], Portuguese [Forced] [por, SRT], Portuguese [por, SRT], Portuguese [por, SRT], Romanian [Forced] [rum, SRT], Romanian [rum, SRT], Romanian [rum, SRT], Russian [rus, SRT], Spanish (Latin America) [SDH] [spa, SRT], Spanish (Latin America) [spa, SRT], Spanish (Latin America) [spa, SRT], Spanish (Spain) [spa, SRT], Swedish [swe, SRT], Swedish [swe, SRT], Tamil [Forced] [tam, SRT], Telugu [Forced] [tel, SRT], Thai [Forced] [tha, SRT], Thai [tha, SRT], Thai [tha, SRT], Turkish [tur, SRT], Turkish [tur, SRT], Ukrainian [ukr, SRT], Ukrainian [ukr, SRT], Vietnamese [vie, SRT], Vietnamese [vie, SRT]
Additional Info
General
Unique ID                                : 223440391333235127967874529239930062922 (0xA8190DD5EBD1A630E7DA9FC0E2D5484A)
Complete name                            : Pokémon.Concierge.S01E01.Im.Haru.the.New.Concierge.1080p.NF.WEB-DL.DDP5.1.H.264-Waves.mkv
Format                                   : Matroska
Format version                           : Version 4
File size                                : 3.65 GiB
Duration                                 : 19 min 33 s
Overall bit rate mode                    : Variable
Overall bit rate                         : 26.7 Mb/s
Frame rate                               : 24.000 FPS
Encoded date                             : 2023-12-28 09:45:42 UTC
Writing application                      : mkvmerge v76.0 ('Celebration') 64-bit
Writing library                          : libebml v1.4.4 + libmatroska v1.7.1 / Lavf60.3.100

Video
ID                                       : 1
Format                                   : AVC
Format/Info                              : Advanced Video Codec
Format profile                           : Main@L4
Format settings                          : CABAC / 3 Ref Frames
Format settings, CABAC                   : Yes
Format settings, Reference frames        : 3 frames
Codec ID                                 : V_MPEG4/ISO/AVC
Duration                                 : 19 min 33 s
Bit rate mode                            : Variable
Bit rate                                 : 4 315 kb/s
Nominal bit rate                         : 5 000 kb/s
Maximum bit rate                         : 7 500 kb/s
Width                                    : 1 920 pixels
Height                                   : 1 080 pixels
Display aspect ratio                     : 16:9
Frame rate mode                          : Constant
Frame rate                               : 24.000 FPS
Color space                              : YUV
Chroma subsampling                       : 4:2:0
Bit depth                                : 8 bits
Scan type                                : Progressive
Bits/(Pixel*Frame)                       : 0.087
Stream size                              : 604 MiB (16%)
Writing library                          : x264 core 148 r2727 7d026e8
Encoding settings                        : cabac=1 / ref=3 / deblock=1:0:0 / analyse=0x1:0x111 / me=umh / subme=10 / psy=1 / psy_rd=1.00:0.00 / mixed_ref=1 / me_range=24 / chroma_me=1 / trellis=2 / 8x8dct=0 / cqm=0 / deadzone=21,11 / fast_pskip=1 / chroma_qp_offset=-2 / threads=6 / lookahead_threads=1 / sliced_threads=0 / nr=0 / decimate=1 / interlaced=0 / bluray_compat=0 / stitchable=1 / constrained_intra=0 / bframes=2 / b_pyramid=0 / b_adapt=2 / b_bias=0 / direct=3 / weightb=1 / open_gop=0 / weightp=2 / keyint=240 / keyint_min=121 / scenecut=0 / intra_refresh=0 / rc_lookahead=48 / rc=2pass / mbtree=1 / bitrate=5000 / ratetol=1.0 / qcomp=0.50 / qpmin=6 / qpmax=51 / qpstep=4 / cplxblur=20.0 / qblur=0.5 / vbv_maxrate=7500 / vbv_bufsize=10000 / nal_hrd=vbr / filler=0 / ip_ratio=1.40 / aq=1:1.00
Default                                  : Yes
Forced                                   : No

Audio #1
ID                                       : 2
Format                                   : E-AC-3
Format/Info                              : Enhanced AC-3
Commercial name                          : Dolby Digital Plus
Codec ID                                 : A_EAC3
Duration                                 : 19 min 33 s
Bit rate mode                            : Constant
Bit rate                                 : 640 kb/s
Channel(s)                               : 6 channels
Channel layout                           : L R C LFE Ls Rs
Sampling rate                            : 48.0 kHz
Frame rate                               : 31.250 FPS (1536 SPF)
Compression mode                         : Lossy
Stream size                              : 89.5 MiB (2%)
Title                                    : Arabic
Language                                 : Arabic
Service kind                             : Complete Main
Default                                  : Yes
Forced                                   : No

Audio #2
ID                                       : 3
Format                                   : E-AC-3
Format/Info                              : Enhanced AC-3
Commercial name                          : Dolby Digital Plus
Codec ID                                 : A_EAC3
Duration                                 : 19 min 33 s
Bit rate mode                            : Constant
Bit rate                                 : 640 kb/s
Channel(s)                               : 6 channels
Channel layout                           : L R C LFE Ls Rs
Sampling rate                            : 48.0 kHz
Frame rate                               : 31.250 FPS (1536 SPF)
Compression mode                         : Lossy
Stream size                              : 89.5 MiB (2%)
Title                                    : Chinese (Taiwan)
Language                                 : Chinese (Taiwan)
Service kind                             : Complete Main
Default                                  : No
Forced                                   : No

Audio #3
ID                                       : 4
Format                                   : E-AC-3
Format/Info                              : Enhanced AC-3
Commercial name                          : Dolby Digital Plus
Codec ID                                 : A_EAC3
Duration                                 : 19 min 33 s
Bit rate mode                            : Constant
Bit rate                                 : 640 kb/s
Channel(s)                               : 6 channels
Channel layout                           : L R C LFE Ls Rs
Sampling rate                            : 48.0 kHz
Frame rate                               : 31.250 FPS (1536 SPF)
Compression mode                         : Lossy
Stream size                              : 89.5 MiB (2%)
Title                                    : Croatian
Language                                 : Croatian
Service kind                             : Complete Main
Default                                  : No
Forced                                   : No

Audio #4
ID                                       : 5
Format                                   : E-AC-3
Format/Info                              : Enhanced AC-3
Commercial name                          : Dolby Digital Plus
Codec ID                                 : A_EAC3
Duration                                 : 19 min 33 s
Bit rate mode                            : Constant
Bit rate                                 : 640 kb/s
Channel(s)                               : 6 channels
Channel layout                           : L R C LFE Ls Rs
Sampling rate                            : 48.0 kHz
Frame rate                               : 31.250 FPS (1536 SPF)
Compression mode                         : Lossy
Stream size                              : 89.5 MiB (2%)
Title                                    : Czech
Language                                 : Czech
Service kind                             : Complete Main
Default                                  : No
Forced                                   : No

Audio #5
ID                                       : 6
Format                                   : E-AC-3
Format/Info                              : Enhanced AC-3
Commercial name                          : Dolby Digital Plus
Codec ID                                 : A_EAC3
Duration                                 : 19 min 33 s
Bit rate mode                            : Constant
Bit rate                                 : 640 kb/s
Channel(s)                               : 6 channels
Channel layout                           : L R C LFE Ls Rs
Sampling rate                            : 48.0 kHz
Frame rate                               : 31.250 FPS (1536 SPF)
Compression mode                         : Lossy
Stream size                              : 89.5 MiB (2%)
Title                                    : Danish
Language                                 : Danish
Service kind                             : Complete Main
Default                                  : No
Forced                                   : No

Audio #6
ID                                       : 7
Format                                   : E-AC-3
Format/Info                              : Enhanced AC-3
Commercial name                          : Dolby Digital Plus
Codec ID                                 : A_EAC3
Duration                                 : 19 min 33 s
Bit rate mode                            : Constant
Bit rate                                 : 640 kb/s
Channel(s)                               : 6 channels
Channel layout                           : L R C LFE Ls Rs
Sampling rate                            : 48.0 kHz
Frame rate                               : 31.250 FPS (1536 SPF)
Compression mode                         : Lossy
Stream size                              : 89.5 MiB (2%)
Title                                    : Dutch
Language                                 : Dutch
Service kind                             : Complete Main
Default                                  : No
Forced                                   : No

Audio #7
ID                                       : 8
Format                                   : E-AC-3
Format/Info                              : Enhanced AC-3
Commercial name                          : Dolby Digital Plus
Codec ID                                 : A_EAC3
Duration                                 : 19 min 33 s
Bit rate mode                            : Constant
Bit rate                                 : 640 kb/s
Channel(s)                               : 6 channels
Channel layout                           : L R C LFE Ls Rs
Sampling rate                            : 48.0 kHz
Frame rate                               : 31.250 FPS (1536 SPF)
Compression mode                         : Lossy
Stream size                              : 89.5 MiB (2%)
Title                                    : English
Language                                 : English
Service kind                             : Complete Main
Default                                  : No
Forced                                   : No

Audio #8
ID                                       : 9
Format                                   : E-AC-3
Format/Info                              : Enhanced AC-3
Commercial name                          : Dolby Digital Plus
Codec ID                                 : A_EAC3
Duration                                 : 19 min 33 s
Bit rate mode                            : Constant
Bit rate                                 : 640 kb/s
Channel(s)                               : 6 channels
Channel layout                           : L R C LFE Ls Rs
Sampling rate                            : 48.0 kHz
Frame rate                               : 31.250 FPS (1536 SPF)
Compression mode                         : Lossy
Stream size                              : 89.5 MiB (2%)
Title                                    : Finnish
Language                                 : Finnish
Service kind                             : Complete Main
Default                                  : No
Forced                                   : No

Audio #9
ID                                       : 10
Format                                   : E-AC-3
Format/Info                              : Enhanced AC-3
Commercial name                          : Dolby Digital Plus
Codec ID                                 : A_EAC3
Duration                                 : 19 min 33 s
Bit rate mode                            : Constant
Bit rate                                 : 640 kb/s
Channel(s)                               : 6 channels
Channel layout                           : L R C LFE Ls Rs
Sampling rate                            : 48.0 kHz
Frame rate                               : 31.250 FPS (1536 SPF)
Compression mode                         : Lossy
Stream size                              : 89.5 MiB (2%)
Title                                    : French
Language                                 : French
Service kind                             : Complete Main
Default                                  : No
Forced                                   : No

Audio #10
ID                                       : 11
Format                                   : E-AC-3
Format/Info                              : Enhanced AC-3
Commercial name                          : Dolby Digital Plus
Codec ID                                 : A_EAC3
Duration                                 : 19 min 33 s
Bit rate mode                            : Constant
Bit rate                                 : 640 kb/s
Channel(s)                               : 6 channels
Channel layout                           : L R C LFE Ls Rs
Sampling rate                            : 48.0 kHz
Frame rate                               : 31.250 FPS (1536 SPF)
Compression mode                         : Lossy
Stream size                              : 89.5 MiB (2%)
Title                                    : German
Language                                 : German
Service kind                             : Complete Main
Default                                  : No
Forced                                   : No

Audio #11
ID                                       : 12
Format                                   : E-AC-3
Format/Info                              : Enhanced AC-3
Commercial name                          : Dolby Digital Plus
Codec ID                                 : A_EAC3
Duration                                 : 19 min 33 s
Bit rate mode                            : Constant
Bit rate                                 : 640 kb/s
Channel(s)                               : 6 channels
Channel layout                           : L R C LFE Ls Rs
Sampling rate                            : 48.0 kHz
Frame rate                               : 31.250 FPS (1536 SPF)
Compression mode                         : Lossy
Stream size                              : 89.5 MiB (2%)
Title                                    : Greek
Language                                 : Greek
Service kind                             : Complete Main
Default                                  : No
Forced                                   : No

Audio #12
ID                                       : 13
Format                                   : E-AC-3
Format/Info                              : Enhanced AC-3
Commercial name                          : Dolby Digital Plus
Codec ID                                 : A_EAC3
Duration                                 : 19 min 33 s
Bit rate mode                            : Constant
Bit rate                                 : 640 kb/s
Channel(s)                               : 6 channels
Channel layout                           : L R C LFE Ls Rs
Sampling rate                            : 48.0 kHz
Frame rate                               : 31.250 FPS (1536 SPF)
Compression mode                         : Lossy
Stream size                              : 89.5 MiB (2%)
Title                                    : Hebrew
Language                                 : Hebrew
Service kind                             : Complete Main
Default                                  : No
Forced                                   : No

Audio #13
ID                                       : 14
Format                                   : E-AC-3
Format/Info                              : Enhanced AC-3
Commercial name                          : Dolby Digital Plus
Codec ID                                 : A_EAC3
Duration                                 : 19 min 33 s
Bit rate mode                            : Constant
Bit rate                                 : 640 kb/s
Channel(s)                               : 6 channels
Channel layout                           : L R C LFE Ls Rs
Sampling rate                            : 48.0 kHz
Frame rate                               : 31.250 FPS (1536 SPF)
Compression mode                         : Lossy
Stream size                              : 89.5 MiB (2%)
Title                                    : Hindi
Language                                 : Hindi
Service kind                             : Complete Main
Default                                  : No
Forced                                   : No

Audio #14
ID                                       : 15
Format                                   : E-AC-3
Format/Info                              : Enhanced AC-3
Commercial name                          : Dolby Digital Plus
Codec ID                                 : A_EAC3
Duration                                 : 19 min 33 s
Bit rate mode                            : Constant
Bit rate                                 : 640 kb/s
Channel(s)                               : 6 channels
Channel layout                           : L R C LFE Ls Rs
Sampling rate                            : 48.0 kHz
Frame rate                               : 31.250 FPS (1536 SPF)
Compression mode                         : Lossy
Stream size                              : 89.5 MiB (2%)
Title                                    : Hungarian
Language                                 : Hungarian
Service kind                             : Complete Main
Default                                  : No
Forced                                   : No

Audio #15
ID                                       : 16
Format                                   : E-AC-3
Format/Info                              : Enhanced AC-3
Commercial name                          : Dolby Digital Plus
Codec ID                                 : A_EAC3
Duration                                 : 19 min 33 s
Bit rate mode                            : Constant
Bit rate                                 : 640 kb/s
Channel(s)                               : 6 channels
Channel layout                           : L R C LFE Ls Rs
Sampling rate                            : 48.0 kHz
Frame rate                               : 31.250 FPS (1536 SPF)
Compression mode                         : Lossy
Stream size                              : 89.5 MiB (2%)
Title                                    : Indonesian
Language                                 : Indonesian
Service kind                             : Complete Main
Default                                  : No
Forced                                   : No

Audio #16
ID                                       : 17
Format                                   : E-AC-3
Format/Info                              : Enhanced AC-3
Commercial name                          : Dolby Digital Plus
Codec ID                                 : A_EAC3
Duration                                 : 19 min 33 s
Bit rate mode                            : Constant
Bit rate                                 : 640 kb/s
Channel(s)                               : 6 channels
Channel layout                           : L R C LFE Ls Rs
Sampling rate                            : 48.0 kHz
Frame rate                               : 31.250 FPS (1536 SPF)
Compression mode                         : Lossy
Stream size                              : 89.5 MiB (2%)
Title                                    : Italian
Language                                 : Italian
Service kind                             : Complete Main
Default                                  : No
Forced                                   : No

Audio #17
ID                                       : 18
Format                                   : E-AC-3
Format/Info                              : Enhanced AC-3
Commercial name                          : Dolby Digital Plus
Codec ID                                 : A_EAC3
Duration                                 : 19 min 33 s
Bit rate mode                            : Constant
Bit rate                                 : 640 kb/s
Channel(s)                               : 6 channels
Channel layout                           : L R C LFE Ls Rs
Sampling rate                            : 48.0 kHz
Frame rate                               : 31.250 FPS (1536 SPF)
Compression mode                         : Lossy
Stream size                              : 89.5 MiB (2%)
Title                                    : Japanese
Language                                 : Japanese
Service kind                             : Complete Main
Default                                  : No
Forced                                   : No

Audio #18
ID                                       : 19
Format                                   : E-AC-3
Format/Info                              : Enhanced AC-3
Commercial name                          : Dolby Digital Plus
Codec ID                                 : A_EAC3
Duration                                 : 19 min 33 s
Bit rate mode                            : Constant
Bit rate                                 : 640 kb/s
Channel(s)                               : 6 channels
Channel layout                           : L R C LFE Ls Rs
Sampling rate                            : 48.0 kHz
Frame rate                               : 31.250 FPS (1536 SPF)
Compression mode                         : Lossy
Stream size                              : 89.5 MiB (2%)
Title                                    : Japanese [Audio Description]
Language                                 : Japanese
Service kind                             : Complete Main
Default                                  : No
Forced                                   : No

Audio #19
ID                                       : 20
Format                                   : E-AC-3
Format/Info                              : Enhanced AC-3
Commercial name                          : Dolby Digital Plus
Codec ID                                 : A_EAC3
Duration                                 : 19 min 33 s
Bit rate mode                            : Constant
Bit rate                                 : 640 kb/s
Channel(s)                               : 6 channels
Channel layout                           : L R C LFE Ls Rs
Sampling rate                            : 48.0 kHz
Frame rate                               : 31.250 FPS (1536 SPF)
Compression mode                         : Lossy
Stream size                              : 89.5 MiB (2%)
Title                                    : Korean
Language                                 : Korean
Service kind                             : Complete Main
Default                                  : No
Forced                                   : No

Audio #20
ID                                       : 21
Format                                   : E-AC-3
Format/Info                              : Enhanced AC-3
Commercial name                          : Dolby Digital Plus
Codec ID                                 : A_EAC3
Duration                                 : 19 min 33 s
Bit rate mode                            : Constant
Bit rate                                 : 640 kb/s
Channel(s)                               : 6 channels
Channel layout                           : L R C LFE Ls Rs
Sampling rate                            : 48.0 kHz
Frame rate                               : 31.250 FPS (1536 SPF)
Compression mode                         : Lossy
Stream size                              : 89.5 MiB (2%)
Title                                    : Malay
Language                                 : Malay
Service kind                             : Complete Main
Default                                  : No
Forced                                   : No

Audio #21
ID                                       : 22
Format                                   : E-AC-3
Format/Info                              : Enhanced AC-3
Commercial name                          : Dolby Digital Plus
Codec ID                                 : A_EAC3
Duration                                 : 19 min 33 s
Bit rate mode                            : Constant
Bit rate                                 : 640 kb/s
Channel(s)                               : 6 channels
Channel layout                           : L R C LFE Ls Rs
Sampling rate                            : 48.0 kHz
Frame rate                               : 31.250 FPS (1536 SPF)
Compression mode                         : Lossy
Stream size                              : 89.5 MiB (2%)
Title                                    : Norwegian Bokmål
Language                                 : Norwegian Bokmal
Service kind                             : Complete Main
Default                                  : No
Forced                                   : No

Audio #22
ID                                       : 23
Format                                   : E-AC-3
Format/Info                              : Enhanced AC-3
Commercial name                          : Dolby Digital Plus
Codec ID                                 : A_EAC3
Duration                                 : 19 min 33 s
Bit rate mode                            : Constant
Bit rate                                 : 640 kb/s
Channel(s)                               : 6 channels
Channel layout                           : L R C LFE Ls Rs
Sampling rate                            : 48.0 kHz
Frame rate                               : 31.250 FPS (1536 SPF)
Compression mode                         : Lossy
Stream size                              : 89.5 MiB (2%)
Title                                    : Polish
Language                                 : Polish
Service kind                             : Complete Main
Default                                  : No
Forced                                   : No

Audio #23
ID                                       : 24
Format                                   : E-AC-3
Format/Info                              : Enhanced AC-3
Commercial name                          : Dolby Digital Plus
Codec ID                                 : A_EAC3
Duration                                 : 19 min 33 s
Bit rate mode                            : Constant
Bit rate                                 : 640 kb/s
Channel(s)                               : 6 channels
Channel layout                           : L R C LFE Ls Rs
Sampling rate                            : 48.0 kHz
Frame rate                               : 31.250 FPS (1536 SPF)
Compression mode                         : Lossy
Stream size                              : 89.5 MiB (2%)
Title                                    : Portuguese (Brazil)
Language                                 : Portuguese (BR)
Service kind                             : Complete Main
Default                                  : No
Forced                                   : No

Audio #24
ID                                       : 25
Format                                   : E-AC-3
Format/Info                              : Enhanced AC-3
Commercial name                          : Dolby Digital Plus
Codec ID                                 : A_EAC3
Duration                                 : 19 min 33 s
Bit rate mode                            : Constant
Bit rate                                 : 640 kb/s
Channel(s)                               : 6 channels
Channel layout                           : L R C LFE Ls Rs
Sampling rate                            : 48.0 kHz
Frame rate                               : 31.250 FPS (1536 SPF)
Compression mode                         : Lossy
Stream size                              : 89.5 MiB (2%)
Title                                    : Portuguese
Language                                 : Portuguese
Service kind                             : Complete Main
Default                                  : No
Forced                                   : No

Audio #25
ID                                       : 26
Format                                   : E-AC-3
Format/Info                              : Enhanced AC-3
Commercial name                          : Dolby Digital Plus
Codec ID                                 : A_EAC3
Duration                                 : 19 min 33 s
Bit rate mode                            : Constant
Bit rate                                 : 640 kb/s
Channel(s)                               : 6 channels
Channel layout                           : L R C LFE Ls Rs
Sampling rate                            : 48.0 kHz
Frame rate                               : 31.250 FPS (1536 SPF)
Compression mode                         : Lossy
Stream size                              : 89.5 MiB (2%)
Title                                    : Romanian
Language                                 : Romanian
Service kind                             : Complete Main
Default                                  : No
Forced                                   : No

Audio #26
ID                                       : 27
Format                                   : E-AC-3
Format/Info                              : Enhanced AC-3
Commercial name                          : Dolby Digital Plus
Codec ID                                 : A_EAC3
Duration                                 : 19 min 33 s
Bit rate mode                            : Constant
Bit rate                                 : 640 kb/s
Channel(s)                               : 6 channels
Channel layout                           : L R C LFE Ls Rs
Sampling rate                            : 48.0 kHz
Frame rate                               : 31.250 FPS (1536 SPF)
Compression mode                         : Lossy
Stream size                              : 89.5 MiB (2%)
Title                                    : Spanish (Latin America)
Language                                 : Spanish (Latin America)
Service kind                             : Complete Main
Default                                  : No
Forced                                   : No

Audio #27
ID                                       : 28
Format                                   : E-AC-3
Format/Info                              : Enhanced AC-3
Commercial name                          : Dolby Digital Plus
Codec ID                                 : A_EAC3
Duration                                 : 19 min 33 s
Bit rate mode                            : Constant
Bit rate                                 : 640 kb/s
Channel(s)                               : 6 channels
Channel layout                           : L R C LFE Ls Rs
Sampling rate                            : 48.0 kHz
Frame rate                               : 31.250 FPS (1536 SPF)
Compression mode                         : Lossy
Stream size                              : 89.5 MiB (2%)
Title                                    : Spanish (Latin America) [Audio Description]
Language                                 : Spanish (Latin America)
Service kind                             : Complete Main
Default                                  : No
Forced                                   : No

Audio #28
ID                                       : 29
Format                                   : E-AC-3
Format/Info                              : Enhanced AC-3
Commercial name                          : Dolby Digital Plus
Codec ID                                 : A_EAC3
Duration                                 : 19 min 33 s
Bit rate mode                            : Constant
Bit rate                                 : 640 kb/s
Channel(s)                               : 6 channels
Channel layout                           : L R C LFE Ls Rs
Sampling rate                            : 48.0 kHz
Frame rate                               : 31.250 FPS (1536 SPF)
Compression mode                         : Lossy
Stream size                              : 89.5 MiB (2%)
Title                                    : Spanish (Spain)
Language                                 : Spanish (ES)
Service kind                             : Complete Main
Default                                  : No
Forced                                   : No

Audio #29
ID                                       : 30
Format                                   : E-AC-3
Format/Info                              : Enhanced AC-3
Commercial name                          : Dolby Digital Plus
Codec ID                                 : A_EAC3
Duration                                 : 19 min 33 s
Bit rate mode                            : Constant
Bit rate                                 : 640 kb/s
Channel(s)                               : 6 channels
Channel layout                           : L R C LFE Ls Rs
Sampling rate                            : 48.0 kHz
Frame rate                               : 31.250 FPS (1536 SPF)
Compression mode                         : Lossy
Stream size                              : 89.5 MiB (2%)
Title                                    : Swedish
Language                                 : Swedish
Service kind                             : Complete Main
Default                                  : No
Forced                                   : No

Audio #30
ID                                       : 31
Format                                   : E-AC-3
Format/Info                              : Enhanced AC-3
Commercial name                          : Dolby Digital Plus
Codec ID                                 : A_EAC3
Duration                                 : 19 min 33 s
Bit rate mode                            : Constant
Bit rate                                 : 640 kb/s
Channel(s)                               : 6 channels
Channel layout                           : L R C LFE Ls Rs
Sampling rate                            : 48.0 kHz
Frame rate                               : 31.250 FPS (1536 SPF)
Compression mode                         : Lossy
Stream size                              : 89.5 MiB (2%)
Title                                    : Tamil
Language                                 : Tamil
Service kind                             : Complete Main
Default                                  : No
Forced                                   : No

Audio #31
ID                                       : 32
Format                                   : E-AC-3
Format/Info                              : Enhanced AC-3
Commercial name                          : Dolby Digital Plus
Codec ID                                 : A_EAC3
Duration                                 : 19 min 33 s
Bit rate mode                            : Constant
Bit rate                                 : 640 kb/s
Channel(s)                               : 6 channels
Channel layout                           : L R C LFE Ls Rs
Sampling rate                            : 48.0 kHz
Frame rate                               : 31.250 FPS (1536 SPF)
Compression mode                         : Lossy
Stream size                              : 89.5 MiB (2%)
Title                                    : Telugu
Language                                 : Telugu
Service kind                             : Complete Main
Default                                  : No
Forced                                   : No

Audio #32
ID                                       : 33
Format                                   : E-AC-3
Format/Info                              : Enhanced AC-3
Commercial name                          : Dolby Digital Plus
Codec ID                                 : A_EAC3
Duration                                 : 19 min 33 s
Bit rate mode                            : Constant
Bit rate                                 : 640 kb/s
Channel(s)                               : 6 channels
Channel layout                           : L R C LFE Ls Rs
Sampling rate                            : 48.0 kHz
Frame rate                               : 31.250 FPS (1536 SPF)
Compression mode                         : Lossy
Stream size                              : 89.5 MiB (2%)
Title                                    : Thai
Language                                 : Thai
Service kind                             : Complete Main
Default                                  : No
Forced                                   : No

Audio #33
ID                                       : 34
Format                                   : E-AC-3
Format/Info                              : Enhanced AC-3
Commercial name                          : Dolby Digital Plus
Codec ID                                 : A_EAC3
Duration                                 : 19 min 33 s
Bit rate mode                            : Constant
Bit rate                                 : 640 kb/s
Channel(s)                               : 6 channels
Channel layout                           : L R C LFE Ls Rs
Sampling rate                            : 48.0 kHz
Frame rate                               : 31.250 FPS (1536 SPF)
Compression mode                         : Lossy
Stream size                              : 89.5 MiB (2%)
Title                                    : Turkish
Language                                 : Turkish
Service kind                             : Complete Main
Default                                  : No
Forced                                   : No

Audio #34
ID                                       : 35
Format                                   : E-AC-3
Format/Info                              : Enhanced AC-3
Commercial name                          : Dolby Digital Plus
Codec ID                                 : A_EAC3
Duration                                 : 19 min 33 s
Bit rate mode                            : Constant
Bit rate                                 : 640 kb/s
Channel(s)                               : 6 channels
Channel layout                           : L R C LFE Ls Rs
Sampling rate                            : 48.0 kHz
Frame rate                               : 31.250 FPS (1536 SPF)
Compression mode                         : Lossy
Stream size                              : 89.5 MiB (2%)
Title                                    : Ukrainian
Language                                 : Ukrainian
Service kind                             : Complete Main
Default                                  : No
Forced                                   : No

Audio #35
ID                                       : 36
Format                                   : E-AC-3
Format/Info                              : Enhanced AC-3
Commercial name                          : Dolby Digital Plus
Codec ID                                 : A_EAC3
Duration                                 : 19 min 33 s
Bit rate mode                            : Constant
Bit rate                                 : 640 kb/s
Channel(s)                               : 6 channels
Channel layout                           : L R C LFE Ls Rs
Sampling rate                            : 48.0 kHz
Frame rate                               : 31.250 FPS (1536 SPF)
Compression mode                         : Lossy
Stream size                              : 89.5 MiB (2%)
Title                                    : Vietnamese
Language                                 : Vietnamese
Service kind                             : Complete Main
Default                                  : No
Forced                                   : No

Text #1
ID                                       : 37
Format                                   : UTF-8
Codec ID                                 : S_TEXT/UTF8
Codec ID/Info                            : UTF-8 Plain Text
Duration                                 : 3 s 170 ms
Bit rate                                 : 27 b/s
Frame rate                               : 0.315 FPS
Count of elements                        : 1
Stream size                              : 11.0 Bytes (0%)
Title                                    : Arabic [Forced]
Language                                 : Arabic
Default                                  : Yes
Forced                                   : Yes

Text #2
ID                                       : 38
Format                                   : UTF-8
Codec ID                                 : S_TEXT/UTF8
Codec ID/Info                            : UTF-8 Plain Text
Duration                                 : 16 min 20 s
Bit rate                                 : 77 b/s
Frame rate                               : 0.204 FPS
Count of elements                        : 200
Stream size                              : 9.31 KiB (0%)
Title                                    : Arabic
Language                                 : Arabic
Default                                  : No
Forced                                   : No

Text #3
ID                                       : 39
Format                                   : UTF-8
Codec ID                                 : S_TEXT/UTF8
Codec ID/Info                            : UTF-8 Plain Text
Duration                                 : 14 min 9 s
Bit rate                                 : 55 b/s
Frame rate                               : 0.235 FPS
Count of elements                        : 200
Stream size                              : 5.73 KiB (0%)
Title                                    : Chinese (Simplified)
Language                                 : Chinese (Simplified)
Default                                  : No
Forced                                   : No

Text #4
ID                                       : 40
Format                                   : UTF-8
Codec ID                                 : S_TEXT/UTF8
Codec ID/Info                            : UTF-8 Plain Text
Duration                                 : 14 min 9 s
Bit rate                                 : 57 b/s
Frame rate                               : 0.235 FPS
Count of elements                        : 200
Stream size                              : 5.97 KiB (0%)
Title                                    : Chinese (Traditional)
Language                                 : Chinese (Traditional)
Default                                  : No
Forced                                   : No

Text #5
ID                                       : 41
Format                                   : UTF-8
Codec ID                                 : S_TEXT/UTF8
Codec ID/Info                            : UTF-8 Plain Text
Duration                                 : 14 min 14 s
Bit rate                                 : 58 b/s
Frame rate                               : 0.210 FPS
Count of elements                        : 179
Stream size                              : 6.07 KiB (0%)
Title                                    : Chinese (Traditional)
Language                                 : Chinese (Traditional)
Default                                  : No
Forced                                   : No

Text #6
ID                                       : 42
Format                                   : UTF-8
Codec ID                                 : S_TEXT/UTF8
Codec ID/Info                            : UTF-8 Plain Text
Duration                                 : 16 min 20 s
Bit rate                                 : 43 b/s
Frame rate                               : 0.202 FPS
Count of elements                        : 198
Stream size                              : 5.25 KiB (0%)
Title                                    : Croatian
Language                                 : Croatian
Default                                  : No
Forced                                   : No

Text #7
ID                                       : 43
Format                                   : UTF-8
Codec ID                                 : S_TEXT/UTF8
Codec ID/Info                            : UTF-8 Plain Text
Duration                                 : 14 min 9 s
Bit rate                                 : 50 b/s
Frame rate                               : 0.254 FPS
Count of elements                        : 216
Stream size                              : 5.20 KiB (0%)
Title                                    : Croatian
Language                                 : Croatian
Default                                  : No
Forced                                   : No

Text #8
ID                                       : 44
Format                                   : UTF-8
Codec ID                                 : S_TEXT/UTF8
Codec ID/Info                            : UTF-8 Plain Text
Duration                                 : 3 s 170 ms
Bit rate                                 : 55 b/s
Frame rate                               : 0.315 FPS
Count of elements                        : 1
Stream size                              : 22.0 Bytes (0%)
Title                                    : Czech [Forced]
Language                                 : Czech
Default                                  : No
Forced                                   : Yes

Text #9
ID                                       : 45
Format                                   : UTF-8
Codec ID                                 : S_TEXT/UTF8
Codec ID/Info                            : UTF-8 Plain Text
Duration                                 : 16 min 20 s
Bit rate                                 : 48 b/s
Frame rate                               : 0.204 FPS
Count of elements                        : 200
Stream size                              : 5.85 KiB (0%)
Title                                    : Czech
Language                                 : Czech
Default                                  : No
Forced                                   : No

Text #10
ID                                       : 46
Format                                   : UTF-8
Codec ID                                 : S_TEXT/UTF8
Codec ID/Info                            : UTF-8 Plain Text
Duration                                 : 14 min 9 s
Bit rate                                 : 54 b/s
Frame rate                               : 0.203 FPS
Count of elements                        : 172
Stream size                              : 5.67 KiB (0%)
Title                                    : Czech
Language                                 : Czech
Default                                  : No
Forced                                   : No

Text #11
ID                                       : 47
Format                                   : UTF-8
Codec ID                                 : S_TEXT/UTF8
Codec ID/Info                            : UTF-8 Plain Text
Duration                                 : 16 min 0 s
Bit rate                                 : 53 b/s
Frame rate                               : 0.206 FPS
Count of elements                        : 198
Stream size                              : 6.23 KiB (0%)
Title                                    : Danish
Language                                 : Danish
Default                                  : No
Forced                                   : No

Text #12
ID                                       : 48
Format                                   : UTF-8
Codec ID                                 : S_TEXT/UTF8
Codec ID/Info                            : UTF-8 Plain Text
Duration                                 : 14 min 6 s
Bit rate                                 : 76 b/s
Frame rate                               : 0.180 FPS
Count of elements                        : 152
Stream size                              : 7.94 KiB (0%)
Title                                    : Danish
Language                                 : Danish
Default                                  : No
Forced                                   : No

Text #13
ID                                       : 49
Format                                   : UTF-8
Codec ID                                 : S_TEXT/UTF8
Codec ID/Info                            : UTF-8 Plain Text
Duration                                 : 16 min 20 s
Bit rate                                 : 46 b/s
Frame rate                               : 0.204 FPS
Count of elements                        : 200
Stream size                              : 5.57 KiB (0%)
Title                                    : Dutch
Language                                 : Dutch
Default                                  : No
Forced                                   : No

Text #14
ID                                       : 50
Format                                   : UTF-8
Codec ID                                 : S_TEXT/UTF8
Codec ID/Info                            : UTF-8 Plain Text
Duration                                 : 14 min 9 s
Bit rate                                 : 65 b/s
Frame rate                               : 0.210 FPS
Count of elements                        : 178
Stream size                              : 6.77 KiB (0%)
Title                                    : Dutch
Language                                 : Dutch
Default                                  : No
Forced                                   : No

Text #15
ID                                       : 51
Format                                   : UTF-8
Codec ID                                 : S_TEXT/UTF8
Codec ID/Info                            : UTF-8 Plain Text
Duration                                 : 16 min 4 s
Bit rate                                 : 74 b/s
Frame rate                               : 0.307 FPS
Count of elements                        : 296
Stream size                              : 8.77 KiB (0%)
Title                                    : English [SDH]
Language                                 : English
Default                                  : No
Forced                                   : No

Text #16
ID                                       : 52
Format                                   : UTF-8
Codec ID                                 : S_TEXT/UTF8
Codec ID/Info                            : UTF-8 Plain Text
Duration                                 : 14 min 9 s
Bit rate                                 : 66 b/s
Frame rate                               : 0.265 FPS
Count of elements                        : 225
Stream size                              : 6.90 KiB (0%)
Title                                    : English
Language                                 : English
Default                                  : No
Forced                                   : No

Text #17
ID                                       : 53
Format                                   : UTF-8
Codec ID                                 : S_TEXT/UTF8
Codec ID/Info                            : UTF-8 Plain Text
Duration                                 : 14 min 9 s
Bit rate                                 : 61 b/s
Frame rate                               : 0.232 FPS
Count of elements                        : 197
Stream size                              : 6.37 KiB (0%)
Title                                    : English
Language                                 : English
Default                                  : No
Forced                                   : No

Text #18
ID                                       : 54
Format                                   : UTF-8
Codec ID                                 : S_TEXT/UTF8
Codec ID/Info                            : UTF-8 Plain Text
Duration                                 : 16 min 20 s
Bit rate                                 : 57 b/s
Frame rate                               : 0.208 FPS
Count of elements                        : 204
Stream size                              : 6.87 KiB (0%)
Title                                    : Filipino
Language                                 : Filipino
Default                                  : No
Forced                                   : No

Text #19
ID                                       : 55
Format                                   : UTF-8
Codec ID                                 : S_TEXT/UTF8
Codec ID/Info                            : UTF-8 Plain Text
Duration                                 : 16 min 20 s
Bit rate                                 : 49 b/s
Frame rate                               : 0.204 FPS
Count of elements                        : 200
Stream size                              : 5.88 KiB (0%)
Title                                    : Finnish
Language                                 : Finnish
Default                                  : No
Forced                                   : No

Text #20
ID                                       : 56
Format                                   : UTF-8
Codec ID                                 : S_TEXT/UTF8
Codec ID/Info                            : UTF-8 Plain Text
Duration                                 : 14 min 16 s
Bit rate                                 : 67 b/s
Frame rate                               : 0.281 FPS
Count of elements                        : 241
Stream size                              : 7.06 KiB (0%)
Title                                    : Finnish
Language                                 : Finnish
Default                                  : No
Forced                                   : No

Text #21
ID                                       : 57
Format                                   : UTF-8
Codec ID                                 : S_TEXT/UTF8
Codec ID/Info                            : UTF-8 Plain Text
Duration                                 : 59 s 894 ms
Bit rate                                 : 6 b/s
Frame rate                               : 0.033 FPS
Count of elements                        : 2
Stream size                              : 45.0 Bytes (0%)
Title                                    : French [Forced]
Language                                 : French
Default                                  : No
Forced                                   : Yes

Text #22
ID                                       : 58
Format                                   : UTF-8
Codec ID                                 : S_TEXT/UTF8
Codec ID/Info                            : UTF-8 Plain Text
Duration                                 : 16 min 26 s
Bit rate                                 : 87 b/s
Frame rate                               : 0.320 FPS
Count of elements                        : 316
Stream size                              : 10.6 KiB (0%)
Title                                    : French [SDH]
Language                                 : French
Default                                  : No
Forced                                   : No

Text #23
ID                                       : 59
Format                                   : UTF-8
Codec ID                                 : S_TEXT/UTF8
Codec ID/Info                            : UTF-8 Plain Text
Duration                                 : 16 min 20 s
Bit rate                                 : 54 b/s
Frame rate                               : 0.204 FPS
Count of elements                        : 200
Stream size                              : 6.52 KiB (0%)
Title                                    : French
Language                                 : French
Default                                  : No
Forced                                   : No

Text #24
ID                                       : 60
Format                                   : UTF-8
Codec ID                                 : S_TEXT/UTF8
Codec ID/Info                            : UTF-8 Plain Text
Duration                                 : 16 min 19 s
Bit rate                                 : 70 b/s
Frame rate                               : 0.241 FPS
Count of elements                        : 236
Stream size                              : 8.45 KiB (0%)
Title                                    : French
Language                                 : French
Default                                  : No
Forced                                   : No

Text #25
ID                                       : 61
Format                                   : UTF-8
Codec ID                                 : S_TEXT/UTF8
Codec ID/Info                            : UTF-8 Plain Text
Duration                                 : 14 min 21 s
Bit rate                                 : 97 b/s
Frame rate                               : 0.331 FPS
Count of elements                        : 285
Stream size                              : 10.3 KiB (0%)
Title                                    : German [SDH]
Language                                 : German
Default                                  : No
Forced                                   : No

Text #26
ID                                       : 62
Format                                   : UTF-8
Codec ID                                 : S_TEXT/UTF8
Codec ID/Info                            : UTF-8 Plain Text
Duration                                 : 16 min 20 s
Bit rate                                 : 56 b/s
Frame rate                               : 0.203 FPS
Count of elements                        : 199
Stream size                              : 6.73 KiB (0%)
Title                                    : German
Language                                 : German
Default                                  : No
Forced                                   : No

Text #27
ID                                       : 63
Format                                   : UTF-8
Codec ID                                 : S_TEXT/UTF8
Codec ID/Info                            : UTF-8 Plain Text
Duration                                 : 14 min 9 s
Bit rate                                 : 71 b/s
Frame rate                               : 0.248 FPS
Count of elements                        : 211
Stream size                              : 7.45 KiB (0%)
Title                                    : German
Language                                 : German
Default                                  : No
Forced                                   : No

Text #28
ID                                       : 64
Format                                   : UTF-8
Codec ID                                 : S_TEXT/UTF8
Codec ID/Info                            : UTF-8 Plain Text
Duration                                 : 3 s 167 ms
Bit rate                                 : 80 b/s
Frame rate                               : 0.316 FPS
Count of elements                        : 1
Stream size                              : 32.0 Bytes (0%)
Title                                    : Greek [Forced]
Language                                 : Greek
Default                                  : No
Forced                                   : Yes

Text #29
ID                                       : 65
Format                                   : UTF-8
Codec ID                                 : S_TEXT/UTF8
Codec ID/Info                            : UTF-8 Plain Text
Duration                                 : 16 min 20 s
Bit rate                                 : 87 b/s
Frame rate                               : 0.203 FPS
Count of elements                        : 199
Stream size                              : 10.5 KiB (0%)
Title                                    : Greek
Language                                 : Greek
Default                                  : No
Forced                                   : No

Text #30
ID                                       : 66
Format                                   : UTF-8
Codec ID                                 : S_TEXT/UTF8
Codec ID/Info                            : UTF-8 Plain Text
Duration                                 : 14 min 9 s
Bit rate                                 : 106 b/s
Frame rate                               : 0.210 FPS
Count of elements                        : 178
Stream size                              : 11.1 KiB (0%)
Title                                    : Greek
Language                                 : Greek
Default                                  : No
Forced                                   : No

Text #31
ID                                       : 67
Format                                   : UTF-8
Codec ID                                 : S_TEXT/UTF8
Codec ID/Info                            : UTF-8 Plain Text
Duration                                 : 4 min 55 s
Bit rate                                 : 1 b/s
Frame rate                               : 0.007 FPS
Count of elements                        : 2
Stream size                              : 70.0 Bytes (0%)
Title                                    : Hebrew [Forced]
Language                                 : Hebrew
Default                                  : No
Forced                                   : Yes

Text #32
ID                                       : 68
Format                                   : UTF-8
Codec ID                                 : S_TEXT/UTF8
Codec ID/Info                            : UTF-8 Plain Text
Duration                                 : 16 min 20 s
Bit rate                                 : 70 b/s
Frame rate                               : 0.204 FPS
Count of elements                        : 200
Stream size                              : 8.44 KiB (0%)
Title                                    : Hebrew
Language                                 : Hebrew
Default                                  : No
Forced                                   : No

Text #33
ID                                       : 69
Format                                   : UTF-8
Codec ID                                 : S_TEXT/UTF8
Codec ID/Info                            : UTF-8 Plain Text
Duration                                 : 2 s 0 ms
Bit rate                                 : 8 b/s
Frame rate                               : 0.500 FPS
Count of elements                        : 1
Stream size                              : 2.00 Bytes (0%)
Title                                    : Hindi (Latin) [Forced]
Language                                 : Hindi (Latn)
Default                                  : No
Forced                                   : Yes

Text #34
ID                                       : 70
Format                                   : UTF-8
Codec ID                                 : S_TEXT/UTF8
Codec ID/Info                            : UTF-8 Plain Text
Duration                                 : 4 min 55 s
Bit rate                                 : 1 b/s
Frame rate                               : 0.007 FPS
Count of elements                        : 2
Stream size                              : 42.0 Bytes (0%)
Title                                    : Hungarian [Forced]
Language                                 : Hungarian
Default                                  : No
Forced                                   : Yes

Text #35
ID                                       : 71
Format                                   : UTF-8
Codec ID                                 : S_TEXT/UTF8
Codec ID/Info                            : UTF-8 Plain Text
Duration                                 : 16 min 20 s
Bit rate                                 : 52 b/s
Frame rate                               : 0.202 FPS
Count of elements                        : 198
Stream size                              : 6.30 KiB (0%)
Title                                    : Hungarian
Language                                 : Hungarian
Default                                  : No
Forced                                   : No

Text #36
ID                                       : 72
Format                                   : UTF-8
Codec ID                                 : S_TEXT/UTF8
Codec ID/Info                            : UTF-8 Plain Text
Duration                                 : 14 min 9 s
Bit rate                                 : 63 b/s
Frame rate                               : 0.213 FPS
Count of elements                        : 181
Stream size                              : 6.56 KiB (0%)
Title                                    : Hungarian
Language                                 : Hungarian
Default                                  : No
Forced                                   : No

Text #37
ID                                       : 73
Format                                   : UTF-8
Codec ID                                 : S_TEXT/UTF8
Codec ID/Info                            : UTF-8 Plain Text
Duration                                 : 16 min 20 s
Bit rate                                 : 50 b/s
Frame rate                               : 0.203 FPS
Count of elements                        : 199
Stream size                              : 6.09 KiB (0%)
Title                                    : Indonesian
Language                                 : Indonesian
Default                                  : No
Forced                                   : No

Text #38
ID                                       : 74
Format                                   : UTF-8
Codec ID                                 : S_TEXT/UTF8
Codec ID/Info                            : UTF-8 Plain Text
Duration                                 : 14 min 9 s
Bit rate                                 : 59 b/s
Frame rate                               : 0.212 FPS
Count of elements                        : 180
Stream size                              : 6.12 KiB (0%)
Title                                    : Indonesian
Language                                 : Indonesian
Default                                  : No
Forced                                   : No

Text #39
ID                                       : 75
Format                                   : UTF-8
Codec ID                                 : S_TEXT/UTF8
Codec ID/Info                            : UTF-8 Plain Text
Duration                                 : 59 s 809 ms
Bit rate                                 : 5 b/s
Frame rate                               : 0.033 FPS
Count of elements                        : 2
Stream size                              : 38.0 Bytes (0%)
Title                                    : Italian [Forced]
Language                                 : Italian
Default                                  : No
Forced                                   : Yes

Text #40
ID                                       : 76
Format                                   : UTF-8
Codec ID                                 : S_TEXT/UTF8
Codec ID/Info                            : UTF-8 Plain Text
Duration                                 : 16 min 20 s
Bit rate                                 : 47 b/s
Frame rate                               : 0.202 FPS
Count of elements                        : 198
Stream size                              : 5.68 KiB (0%)
Title                                    : Italian
Language                                 : Italian
Default                                  : No
Forced                                   : No

Text #41
ID                                       : 77
Format                                   : UTF-8
Codec ID                                 : S_TEXT/UTF8
Codec ID/Info                            : UTF-8 Plain Text
Duration                                 : 14 min 15 s
Bit rate                                 : 63 b/s
Frame rate                               : 0.289 FPS
Count of elements                        : 247
Stream size                              : 6.68 KiB (0%)
Title                                    : Italian
Language                                 : Italian
Default                                  : No
Forced                                   : No

Text #42
ID                                       : 78
Format                                   : UTF-8
Codec ID                                 : S_TEXT/UTF8
Codec ID/Info                            : UTF-8 Plain Text
Duration                                 : 16 min 6 s
Bit rate                                 : 133 b/s
Frame rate                               : 0.282 FPS
Count of elements                        : 273
Stream size                              : 15.7 KiB (0%)
Title                                    : Japanese [SDH]
Language                                 : Japanese
Default                                  : No
Forced                                   : No

Text #43
ID                                       : 79
Format                                   : UTF-8
Codec ID                                 : S_TEXT/UTF8
Codec ID/Info                            : UTF-8 Plain Text
Duration                                 : 4 min 55 s
Bit rate                                 : 1 b/s
Frame rate                               : 0.007 FPS
Count of elements                        : 2
Stream size                              : 50.0 Bytes (0%)
Title                                    : Korean [Forced]
Language                                 : Korean
Default                                  : No
Forced                                   : Yes

Text #44
ID                                       : 80
Format                                   : UTF-8
Codec ID                                 : S_TEXT/UTF8
Codec ID/Info                            : UTF-8 Plain Text
Duration                                 : 14 min 9 s
Bit rate                                 : 61 b/s
Frame rate                               : 0.235 FPS
Count of elements                        : 200
Stream size                              : 6.33 KiB (0%)
Title                                    : Korean
Language                                 : Korean
Default                                  : No
Forced                                   : No

Text #45
ID                                       : 81
Format                                   : UTF-8
Codec ID                                 : S_TEXT/UTF8
Codec ID/Info                            : UTF-8 Plain Text
Duration                                 : 14 min 9 s
Bit rate                                 : 69 b/s
Frame rate                               : 0.324 FPS
Count of elements                        : 275
Stream size                              : 7.16 KiB (0%)
Title                                    : Korean
Language                                 : Korean
Default                                  : No
Forced                                   : No

Text #46
ID                                       : 82
Format                                   : UTF-8
Codec ID                                 : S_TEXT/UTF8
Codec ID/Info                            : UTF-8 Plain Text
Duration                                 : 4 min 55 s
Bit rate                                 : 0 b/s
Frame rate                               : 0.007 FPS
Count of elements                        : 2
Stream size                              : 34.0 Bytes (0%)
Title                                    : Malay [Forced]
Language                                 : Malay
Default                                  : No
Forced                                   : Yes

Text #47
ID                                       : 83
Format                                   : UTF-8
Codec ID                                 : S_TEXT/UTF8
Codec ID/Info                            : UTF-8 Plain Text
Duration                                 : 16 min 20 s
Bit rate                                 : 52 b/s
Frame rate                               : 0.202 FPS
Count of elements                        : 198
Stream size                              : 6.34 KiB (0%)
Title                                    : Malay
Language                                 : Malay
Default                                  : No
Forced                                   : No

Text #48
ID                                       : 84
Format                                   : UTF-8
Codec ID                                 : S_TEXT/UTF8
Codec ID/Info                            : UTF-8 Plain Text
Duration                                 : 14 min 9 s
Bit rate                                 : 61 b/s
Frame rate                               : 0.212 FPS
Count of elements                        : 180
Stream size                              : 6.36 KiB (0%)
Title                                    : Malay
Language                                 : Malay
Default                                  : No
Forced                                   : No

Text #49
ID                                       : 85
Format                                   : UTF-8
Codec ID                                 : S_TEXT/UTF8
Codec ID/Info                            : UTF-8 Plain Text
Duration                                 : 16 min 20 s
Bit rate                                 : 51 b/s
Frame rate                               : 0.204 FPS
Count of elements                        : 200
Stream size                              : 6.14 KiB (0%)
Title                                    : Norwegian Bokmål
Language                                 : Norwegian Bokmal
Default                                  : No
Forced                                   : No

Text #50
ID                                       : 86
Format                                   : UTF-8
Codec ID                                 : S_TEXT/UTF8
Codec ID/Info                            : UTF-8 Plain Text
Duration                                 : 14 min 9 s
Bit rate                                 : 69 b/s
Frame rate                               : 0.218 FPS
Count of elements                        : 185
Stream size                              : 7.17 KiB (0%)
Title                                    : Norwegian Bokmål
Language                                 : Norwegian Bokmal
Default                                  : No
Forced                                   : No

Text #51
ID                                       : 87
Format                                   : UTF-8
Codec ID                                 : S_TEXT/UTF8
Codec ID/Info                            : UTF-8 Plain Text
Duration                                 : 16 min 20 s
Bit rate                                 : 46 b/s
Frame rate                               : 0.204 FPS
Count of elements                        : 200
Stream size                              : 5.56 KiB (0%)
Title                                    : Polish
Language                                 : Polish
Default                                  : No
Forced                                   : No

Text #52
ID                                       : 88
Format                                   : UTF-8
Codec ID                                 : S_TEXT/UTF8
Codec ID/Info                            : UTF-8 Plain Text
Duration                                 : 16 min 20 s
Bit rate                                 : 46 b/s
Frame rate                               : 0.202 FPS
Count of elements                        : 198
Stream size                              : 5.60 KiB (0%)
Title                                    : Portuguese (Brazil)
Language                                 : Portuguese (BR)
Default                                  : No
Forced                                   : No

Text #53
ID                                       : 89
Format                                   : UTF-8
Codec ID                                 : S_TEXT/UTF8
Codec ID/Info                            : UTF-8 Plain Text
Duration                                 : 14 min 9 s
Bit rate                                 : 64 b/s
Frame rate                               : 0.212 FPS
Count of elements                        : 180
Stream size                              : 6.67 KiB (0%)
Title                                    : Portuguese (Brazil)
Language                                 : Portuguese (BR)
Default                                  : No
Forced                                   : No

Text #54
ID                                       : 90
Format                                   : UTF-8
Codec ID                                 : S_TEXT/UTF8
Codec ID/Info                            : UTF-8 Plain Text
Duration                                 : 4 min 55 s
Bit rate                                 : 0 b/s
Frame rate                               : 0.007 FPS
Count of elements                        : 2
Stream size                              : 20.0 Bytes (0%)
Title                                    : Portuguese [Forced]
Language                                 : Portuguese
Default                                  : No
Forced                                   : Yes

Text #55
ID                                       : 91
Format                                   : UTF-8
Codec ID                                 : S_TEXT/UTF8
Codec ID/Info                            : UTF-8 Plain Text
Duration                                 : 16 min 20 s
Bit rate                                 : 53 b/s
Frame rate                               : 0.204 FPS
Count of elements                        : 200
Stream size                              : 6.37 KiB (0%)
Title                                    : Portuguese
Language                                 : Portuguese
Default                                  : No
Forced                                   : No

Text #56
ID                                       : 92
Format                                   : UTF-8
Codec ID                                 : S_TEXT/UTF8
Codec ID/Info                            : UTF-8 Plain Text
Duration                                 : 14 min 9 s
Bit rate                                 : 65 b/s
Frame rate                               : 0.215 FPS
Count of elements                        : 183
Stream size                              : 6.83 KiB (0%)
Title                                    : Portuguese
Language                                 : Portuguese
Default                                  : No
Forced                                   : No

Text #57
ID                                       : 93
Format                                   : UTF-8
Codec ID                                 : S_TEXT/UTF8
Codec ID/Info                            : UTF-8 Plain Text
Duration                                 : 2 s 0 ms
Bit rate                                 : 60 b/s
Frame rate                               : 0.500 FPS
Count of elements                        : 1
Stream size                              : 15.0 Bytes (0%)
Title                                    : Romanian [Forced]
Language                                 : Romanian
Default                                  : No
Forced                                   : Yes

Text #58
ID                                       : 94
Format                                   : UTF-8
Codec ID                                 : S_TEXT/UTF8
Codec ID/Info                            : UTF-8 Plain Text
Duration                                 : 16 min 20 s
Bit rate                                 : 52 b/s
Frame rate                               : 0.202 FPS
Count of elements                        : 198
Stream size                              : 6.32 KiB (0%)
Title                                    : Romanian
Language                                 : Romanian
Default                                  : No
Forced                                   : No

Text #59
ID                                       : 95
Format                                   : UTF-8
Codec ID                                 : S_TEXT/UTF8
Codec ID/Info                            : UTF-8 Plain Text
Duration                                 : 14 min 15 s
Bit rate                                 : 62 b/s
Frame rate                               : 0.207 FPS
Count of elements                        : 177
Stream size                              : 6.51 KiB (0%)
Title                                    : Romanian
Language                                 : Romanian
Default                                  : No
Forced                                   : No

Text #60
ID                                       : 96
Format                                   : UTF-8
Codec ID                                 : S_TEXT/UTF8
Codec ID/Info                            : UTF-8 Plain Text
Duration                                 : 16 min 20 s
Bit rate                                 : 84 b/s
Frame rate                               : 0.204 FPS
Count of elements                        : 200
Stream size                              : 10.1 KiB (0%)
Title                                    : Russian
Language                                 : Russian
Default                                  : No
Forced                                   : No

Text #61
ID                                       : 97
Format                                   : UTF-8
Codec ID                                 : S_TEXT/UTF8
Codec ID/Info                            : UTF-8 Plain Text
Duration                                 : 16 min 25 s
Bit rate                                 : 65 b/s
Frame rate                               : 0.247 FPS
Count of elements                        : 243
Stream size                              : 7.93 KiB (0%)
Title                                    : Spanish (Latin America) [SDH]
Language                                 : Spanish (Latin America)
Default                                  : No
Forced                                   : No

Text #62
ID                                       : 98
Format                                   : UTF-8
Codec ID                                 : S_TEXT/UTF8
Codec ID/Info                            : UTF-8 Plain Text
Duration                                 : 16 min 20 s
Bit rate                                 : 54 b/s
Frame rate                               : 0.198 FPS
Count of elements                        : 194
Stream size                              : 6.46 KiB (0%)
Title                                    : Spanish (Latin America)
Language                                 : Spanish (Latin America)
Default                                  : No
Forced                                   : No

Text #63
ID                                       : 99
Format                                   : UTF-8
Codec ID                                 : S_TEXT/UTF8
Codec ID/Info                            : UTF-8 Plain Text
Duration                                 : 16 min 20 s
Bit rate                                 : 57 b/s
Frame rate                               : 0.209 FPS
Count of elements                        : 205
Stream size                              : 6.92 KiB (0%)
Title                                    : Spanish (Latin America)
Language                                 : Spanish (Latin America)
Default                                  : No
Forced                                   : No

Text #64
ID                                       : 100
Format                                   : UTF-8
Codec ID                                 : S_TEXT/UTF8
Codec ID/Info                            : UTF-8 Plain Text
Duration                                 : 16 min 20 s
Bit rate                                 : 51 b/s
Frame rate                               : 0.203 FPS
Count of elements                        : 199
Stream size                              : 6.18 KiB (0%)
Title                                    : Spanish (Spain)
Language                                 : Spanish (ES)
Default                                  : No
Forced                                   : No

Text #65
ID                                       : 101
Format                                   : UTF-8
Codec ID                                 : S_TEXT/UTF8
Codec ID/Info                            : UTF-8 Plain Text
Duration                                 : 16 min 20 s
Bit rate                                 : 51 b/s
Frame rate                               : 0.204 FPS
Count of elements                        : 200
Stream size                              : 6.11 KiB (0%)
Title                                    : Swedish
Language                                 : Swedish
Default                                  : No
Forced                                   : No

Text #66
ID                                       : 102
Format                                   : UTF-8
Codec ID                                 : S_TEXT/UTF8
Codec ID/Info                            : UTF-8 Plain Text
Duration                                 : 14 min 6 s
Bit rate                                 : 65 b/s
Frame rate                               : 0.228 FPS
Count of elements                        : 193
Stream size                              : 6.80 KiB (0%)
Title                                    : Swedish
Language                                 : Swedish
Default                                  : No
Forced                                   : No

Text #67
ID                                       : 103
Format                                   : UTF-8
Codec ID                                 : S_TEXT/UTF8
Codec ID/Info                            : UTF-8 Plain Text
Duration                                 : 4 min 55 s
Bit rate                                 : 3 b/s
Frame rate                               : 0.007 FPS
Count of elements                        : 2
Stream size                              : 128 Bytes (0%)
Title                                    : Tamil [Forced]
Language                                 : Tamil
Default                                  : No
Forced                                   : Yes

Text #68
ID                                       : 104
Format                                   : UTF-8
Codec ID                                 : S_TEXT/UTF8
Codec ID/Info                            : UTF-8 Plain Text
Duration                                 : 5 min 50 s
Bit rate                                 : 3 b/s
Frame rate                               : 0.009 FPS
Count of elements                        : 3
Stream size                              : 136 Bytes (0%)
Title                                    : Telugu [Forced]
Language                                 : Telugu
Default                                  : No
Forced                                   : Yes

Text #69
ID                                       : 105
Format                                   : UTF-8
Codec ID                                 : S_TEXT/UTF8
Codec ID/Info                            : UTF-8 Plain Text
Duration                                 : 2 s 958 ms
Bit rate                                 : 146 b/s
Frame rate                               : 0.338 FPS
Count of elements                        : 1
Stream size                              : 54.0 Bytes (0%)
Title                                    : Thai [Forced]
Language                                 : Thai
Default                                  : No
Forced                                   : Yes

Text #70
ID                                       : 106
Format                                   : UTF-8
Codec ID                                 : S_TEXT/UTF8
Codec ID/Info                            : UTF-8 Plain Text
Duration                                 : 16 min 20 s
Bit rate                                 : 155 b/s
Frame rate                               : 0.203 FPS
Count of elements                        : 199
Stream size                              : 18.6 KiB (0%)
Title                                    : Thai
Language                                 : Thai
Default                                  : No
Forced                                   : No

Text #71
ID                                       : 107
Format                                   : UTF-8
Codec ID                                 : S_TEXT/UTF8
Codec ID/Info                            : UTF-8 Plain Text
Duration                                 : 14 min 8 s
Bit rate                                 : 147 b/s
Frame rate                               : 0.274 FPS
Count of elements                        : 233
Stream size                              : 15.3 KiB (0%)
Title                                    : Thai
Language                                 : Thai
Default                                  : No
Forced                                   : No

Text #72
ID                                       : 108
Format                                   : UTF-8
Codec ID                                 : S_TEXT/UTF8
Codec ID/Info                            : UTF-8 Plain Text
Duration                                 : 16 min 20 s
Bit rate                                 : 53 b/s
Frame rate                               : 0.204 FPS
Count of elements                        : 200
Stream size                              : 6.40 KiB (0%)
Title                                    : Turkish
Language                                 : Turkish
Default                                  : No
Forced                                   : No

Text #73
ID                                       : 109
Format                                   : UTF-8
Codec ID                                 : S_TEXT/UTF8
Codec ID/Info                            : UTF-8 Plain Text
Duration                                 : 14 min 10 s
Bit rate                                 : 63 b/s
Frame rate                               : 0.219 FPS
Count of elements                        : 186
Stream size                              : 6.54 KiB (0%)
Title                                    : Turkish
Language                                 : Turkish
Default                                  : No
Forced                                   : No

Text #74
ID                                       : 110
Format                                   : UTF-8
Codec ID                                 : S_TEXT/UTF8
Codec ID/Info                            : UTF-8 Plain Text
Duration                                 : 16 min 20 s
Bit rate                                 : 86 b/s
Frame rate                               : 0.204 FPS
Count of elements                        : 200
Stream size                              : 10.3 KiB (0%)
Title                                    : Ukrainian
Language                                 : Ukrainian
Default                                  : No
Forced                                   : No

Text #75
ID                                       : 111
Format                                   : UTF-8
Codec ID                                 : S_TEXT/UTF8
Codec ID/Info                            : UTF-8 Plain Text
Duration                                 : 14 min 9 s
Bit rate                                 : 100 b/s
Frame rate                               : 0.208 FPS
Count of elements                        : 177
Stream size                              : 10.4 KiB (0%)
Title                                    : Ukrainian
Language                                 : Ukrainian
Default                                  : No
Forced                                   : No

Text #76
ID                                       : 112
Format                                   : UTF-8
Codec ID                                 : S_TEXT/UTF8
Codec ID/Info                            : UTF-8 Plain Text
Duration                                 : 16 min 20 s
Bit rate                                 : 65 b/s
Frame rate                               : 0.201 FPS
Count of elements                        : 197
Stream size                              : 7.84 KiB (0%)
Title                                    : Vietnamese
Language                                 : Vietnamese
Default                                  : No
Forced                                   : No

Text #77
ID                                       : 113
Format                                   : UTF-8
Codec ID                                 : S_TEXT/UTF8
Codec ID/Info                            : UTF-8 Plain Text
Duration                                 : 14 min 9 s
Bit rate                                 : 94 b/s
Frame rate                               : 0.221 FPS
Count of elements                        : 188
Stream size                              : 9.78 KiB (0%)
Title                                    : Vietnamese
Language                                 : Vietnamese
Default                                  : No
Forced                                   : No

Menu
00:00:00.000                             : en:Part 1
00:14:30.000                             : en:Credits

Other Files in this Torrent
Pokémon.Concierge.S01E01.Im.Haru.the.New.Concierge.1080p.NF.WEB-DL.DDP5.1.H.264-Waves.mkv
beta
Anime DDL+NZB mirror
Current Time: 14/07/2024 20:00



About/FAQs

Discord