Pokemon.Concierge.S01E04.Welcome.to.the.Pokemon.Resort.1080p.NF.WEB-DL.DDP5.1.H.264.MULTi-VARYG.mkv


File Size3.582 GB (3,846,229,486 bytes)
DownloadClickNUpload: Part1, Part2
DailyUploads: Part1, Part2, Part3, Part4
DownloadGG: Part1, Part2, Part3, Part4
GoFile: Part1, Part2
KrakenFiles: Part1, Part2, Part3, Part4
MdiaLoad: Part1, Part2
MultiUp: Part1
  • BdUpload
  • DownAce
  • Fichier
  • FileCloud
  • Filerio
  • FilesCdn
  • IndiShare
  • Kbagi
  • Turbobit
  • UpToBox
  • Uppit
, Part2
  • BdUpload
  • DownAce
  • Fichier
  • FileCloud
  • Filerio
  • FilesCdn
  • IndiShare
  • Kbagi
  • Turbobit
  • UpToBox
  • Uppit
, Part3
  • BdUpload
  • DownAce
  • Fichier
  • FileCloud
  • Filerio
  • FilesCdn
  • IndiShare
  • Kbagi
  • Turbobit
  • UpToBox
  • Uppit
, Part4
  • BdUpload
  • DownAce
  • Fichier
  • FileCloud
  • Filerio
  • FilesCdn
  • IndiShare
  • Kbagi
  • Turbobit
  • UpToBox
  • Uppit
, Part5
  • BdUpload
  • DownAce
  • Fichier
  • FileCloud
  • Filerio
  • FilesCdn
  • IndiShare
  • Kbagi
  • Turbobit
  • UpToBox
  • Uppit
, Part6
  • BdUpload
  • DownAce
  • Fichier
  • FileCloud
  • Filerio
  • FilesCdn
  • IndiShare
  • Kbagi
  • Turbobit
  • UpToBox
  • Uppit
, Part7
  • BdUpload
  • DownAce
  • Fichier
  • FileCloud
  • Filerio
  • FilesCdn
  • IndiShare
  • Kbagi
  • Turbobit
  • UpToBox
  • Uppit
, Part8
  • BdUpload
  • DownAce
  • Fichier
  • FileCloud
  • Filerio
  • FilesCdn
  • IndiShare
  • Kbagi
  • Turbobit
  • UpToBox
  • Uppit

Uppit: Part1, Part2, Part3, Part4
HashesCRC32: AEE5D40B, MD5: 2F299269764241D9CEAE538DCB280F1B, SHA1: FC95A7FB8EF9FC1AC1E7344C741961FAB738A9B2, SHA256: EC164BF26DCD32ACE79888783373D170B34DC537CB8653C68C0ADFB31FD526E6, ED2K: 9A97C04D148870A251FECDA2FE17F3A9
Screenshots
screenshotscreenshotscreenshotscreenshotscreenshot
SubtitlesAll Attachments | Forced [eng, SRT], eng [SRT], eng [SRT], SDH [eng, SRT], SDH [jpn, SRT], Forced [ara, SRT], ara [SRT], Forced [cze, SRT], cze [SRT], dan [SRT], Forced [ger, SRT], ger [SRT], SDH [ger, SRT], Forced [gre, SRT], gre [SRT], Latin American [spa, SRT], Latin American (SDH) [spa, SRT], European (Forced) [spa, SRT], European [spa, SRT], fin [SRT], fil [SRT], Forced [fre, SRT], fre [SRT], SDH [fre, SRT], Forced [heb, SRT], heb [SRT], Latin (Forced) [hin, SRT], Forced [hrv, SRT], hrv [SRT], Forced [hun, SRT], hun [SRT], Forced [ind, SRT], ind [SRT], Forced [ita, SRT], ita [SRT], Forced [kor, SRT], kor [SRT], Forced [may, SRT], may [SRT], Forced [nob, SRT], nob [SRT], dut [SRT], pol [SRT], Brazilian (Forced) [por, SRT], Brazilian [por, SRT], European (Forced) [por, SRT], European [por, SRT], Forced [rum, SRT], rum [SRT], rus [SRT], swe [SRT], Forced [tam, SRT], Forced [tel, SRT], Forced [tha, SRT], tha [SRT], tur [SRT], Forced [ukr, SRT], ukr [SRT], vie [SRT], Simplified [chi, SRT], Traditional (Forced) [chi, SRT], Traditional [chi, SRT]
Additional Info
General
Unique ID                                : 291304467653323823381902661137235807051 (0xDB273320C44E095717F80E9514B18B4B)
Complete name                            : Pokemon.Concierge.S01E04.Welcome.to.the.Pokemon.Resort.1080p.NF.WEB-DL.DDP5.1.H.264.MULTi-VARYG.mkv
Format                                   : Matroska
Format version                           : Version 4
File size                                : 3.58 GiB
Duration                                 : 20 min 7 s
Overall bit rate mode                    : Variable
Overall bit rate                         : 25.5 Mb/s
Frame rate                               : 24.000 FPS
Writing application                      : mkvmerge v81.0 ('Milliontown') 64-bit
Writing library                          : libebml v1.4.4 + libmatroska v1.7.1

Video
ID                                       : 1
Format                                   : AVC
Format/Info                              : Advanced Video Codec
Format profile                           : Main@L4
Format settings                          : CABAC / 3 Ref Frames
Format settings, CABAC                   : Yes
Format settings, Reference frames        : 3 frames
Codec ID                                 : V_MPEG4/ISO/AVC
Duration                                 : 20 min 7 s
Bit rate mode                            : Variable
Bit rate                                 : 4 349 kb/s
Nominal bit rate                         : 5 000 kb/s
Maximum bit rate                         : 7 500 kb/s
Width                                    : 1 920 pixels
Height                                   : 1 080 pixels
Display aspect ratio                     : 16:9
Frame rate mode                          : Constant
Frame rate                               : 24.000 FPS
Color space                              : YUV
Chroma subsampling                       : 4:2:0
Bit depth                                : 8 bits
Scan type                                : Progressive
Bits/(Pixel*Frame)                       : 0.087
Stream size                              : 626 MiB (17%)
Writing library                          : x264 core 148 r2727 7d026e8
Encoding settings                        : cabac=1 / ref=3 / deblock=1:0:0 / analyse=0x1:0x111 / me=umh / subme=10 / psy=1 / psy_rd=1.00:0.00 / mixed_ref=1 / me_range=24 / chroma_me=1 / trellis=2 / 8x8dct=0 / cqm=0 / deadzone=21,11 / fast_pskip=1 / chroma_qp_offset=-2 / threads=6 / lookahead_threads=1 / sliced_threads=0 / nr=0 / decimate=1 / interlaced=0 / bluray_compat=0 / stitchable=1 / constrained_intra=0 / bframes=2 / b_pyramid=0 / b_adapt=2 / b_bias=0 / direct=3 / weightb=1 / open_gop=0 / weightp=2 / keyint=240 / keyint_min=121 / scenecut=0 / intra_refresh=0 / rc_lookahead=48 / rc=2pass / mbtree=1 / bitrate=5000 / ratetol=1.0 / qcomp=0.50 / qpmin=6 / qpmax=51 / qpstep=4 / cplxblur=20.0 / qblur=0.5 / vbv_maxrate=7500 / vbv_bufsize=10000 / nal_hrd=vbr / filler=0 / ip_ratio=1.40 / aq=1:1.00
Default                                  : Yes
Forced                                   : No

Audio #1
ID                                       : 2
Format                                   : E-AC-3
Format/Info                              : Enhanced AC-3
Commercial name                          : Dolby Digital Plus
Codec ID                                 : A_EAC3
Duration                                 : 20 min 7 s
Bit rate mode                            : Constant
Bit rate                                 : 640 kb/s
Channel(s)                               : 6 channels
Channel layout                           : L R C LFE Ls Rs
Sampling rate                            : 48.0 kHz
Frame rate                               : 31.250 FPS (1536 SPF)
Compression mode                         : Lossy
Stream size                              : 92.1 MiB (3%)
Language                                 : Japanese
Service kind                             : Complete Main
Default                                  : Yes
Forced                                   : No

Audio #2
ID                                       : 3
Format                                   : E-AC-3
Format/Info                              : Enhanced AC-3
Commercial name                          : Dolby Digital Plus
Codec ID                                 : A_EAC3
Duration                                 : 20 min 7 s
Bit rate mode                            : Constant
Bit rate                                 : 640 kb/s
Channel(s)                               : 6 channels
Channel layout                           : L R C LFE Ls Rs
Sampling rate                            : 48.0 kHz
Frame rate                               : 31.250 FPS (1536 SPF)
Compression mode                         : Lossy
Stream size                              : 92.1 MiB (3%)
Language                                 : English
Service kind                             : Complete Main
Default                                  : No
Forced                                   : No

Audio #3
ID                                       : 4
Format                                   : E-AC-3
Format/Info                              : Enhanced AC-3
Commercial name                          : Dolby Digital Plus
Codec ID                                 : A_EAC3
Duration                                 : 20 min 7 s
Bit rate mode                            : Constant
Bit rate                                 : 640 kb/s
Channel(s)                               : 6 channels
Channel layout                           : L R C LFE Ls Rs
Sampling rate                            : 48.0 kHz
Frame rate                               : 31.250 FPS (1536 SPF)
Compression mode                         : Lossy
Stream size                              : 92.1 MiB (3%)
Language                                 : Arabic
Service kind                             : Complete Main
Default                                  : No
Forced                                   : No

Audio #4
ID                                       : 5
Format                                   : E-AC-3
Format/Info                              : Enhanced AC-3
Commercial name                          : Dolby Digital Plus
Codec ID                                 : A_EAC3
Duration                                 : 20 min 7 s
Bit rate mode                            : Constant
Bit rate                                 : 640 kb/s
Channel(s)                               : 6 channels
Channel layout                           : L R C LFE Ls Rs
Sampling rate                            : 48.0 kHz
Frame rate                               : 31.250 FPS (1536 SPF)
Compression mode                         : Lossy
Stream size                              : 92.1 MiB (3%)
Title                                    : Mandarin, Taiwan
Language                                 : Mandarin (TW)
Service kind                             : Complete Main
Default                                  : No
Forced                                   : No

Audio #5
ID                                       : 6
Format                                   : E-AC-3
Format/Info                              : Enhanced AC-3
Commercial name                          : Dolby Digital Plus
Codec ID                                 : A_EAC3
Duration                                 : 20 min 7 s
Bit rate mode                            : Constant
Bit rate                                 : 640 kb/s
Channel(s)                               : 6 channels
Channel layout                           : L R C LFE Ls Rs
Sampling rate                            : 48.0 kHz
Frame rate                               : 31.250 FPS (1536 SPF)
Compression mode                         : Lossy
Stream size                              : 92.1 MiB (3%)
Language                                 : Czech
Service kind                             : Complete Main
Default                                  : No
Forced                                   : No

Audio #6
ID                                       : 7
Format                                   : E-AC-3
Format/Info                              : Enhanced AC-3
Commercial name                          : Dolby Digital Plus
Codec ID                                 : A_EAC3
Duration                                 : 20 min 7 s
Bit rate mode                            : Constant
Bit rate                                 : 640 kb/s
Channel(s)                               : 6 channels
Channel layout                           : L R C LFE Ls Rs
Sampling rate                            : 48.0 kHz
Frame rate                               : 31.250 FPS (1536 SPF)
Compression mode                         : Lossy
Stream size                              : 92.1 MiB (3%)
Language                                 : Danish
Service kind                             : Complete Main
Default                                  : No
Forced                                   : No

Audio #7
ID                                       : 8
Format                                   : E-AC-3
Format/Info                              : Enhanced AC-3
Commercial name                          : Dolby Digital Plus
Codec ID                                 : A_EAC3
Duration                                 : 20 min 7 s
Bit rate mode                            : Constant
Bit rate                                 : 640 kb/s
Channel(s)                               : 6 channels
Channel layout                           : L R C LFE Ls Rs
Sampling rate                            : 48.0 kHz
Frame rate                               : 31.250 FPS (1536 SPF)
Compression mode                         : Lossy
Stream size                              : 92.1 MiB (3%)
Language                                 : German
Service kind                             : Complete Main
Default                                  : No
Forced                                   : No

Audio #8
ID                                       : 9
Format                                   : E-AC-3
Format/Info                              : Enhanced AC-3
Commercial name                          : Dolby Digital Plus
Codec ID                                 : A_EAC3
Duration                                 : 20 min 7 s
Bit rate mode                            : Constant
Bit rate                                 : 640 kb/s
Channel(s)                               : 6 channels
Channel layout                           : L R C LFE Ls Rs
Sampling rate                            : 48.0 kHz
Frame rate                               : 31.250 FPS (1536 SPF)
Compression mode                         : Lossy
Stream size                              : 92.1 MiB (3%)
Language                                 : Greek
Service kind                             : Complete Main
Default                                  : No
Forced                                   : No

Audio #9
ID                                       : 10
Format                                   : E-AC-3
Format/Info                              : Enhanced AC-3
Commercial name                          : Dolby Digital Plus
Codec ID                                 : A_EAC3
Duration                                 : 20 min 7 s
Bit rate mode                            : Constant
Bit rate                                 : 640 kb/s
Channel(s)                               : 6 channels
Channel layout                           : L R C LFE Ls Rs
Sampling rate                            : 48.0 kHz
Frame rate                               : 31.250 FPS (1536 SPF)
Compression mode                         : Lossy
Stream size                              : 92.1 MiB (3%)
Title                                    : Latin American
Language                                 : Spanish (Latin America)
Service kind                             : Complete Main
Default                                  : No
Forced                                   : No

Audio #10
ID                                       : 11
Format                                   : E-AC-3
Format/Info                              : Enhanced AC-3
Commercial name                          : Dolby Digital Plus
Codec ID                                 : A_EAC3
Duration                                 : 20 min 7 s
Bit rate mode                            : Constant
Bit rate                                 : 640 kb/s
Channel(s)                               : 6 channels
Channel layout                           : L R C LFE Ls Rs
Sampling rate                            : 48.0 kHz
Frame rate                               : 31.250 FPS (1536 SPF)
Compression mode                         : Lossy
Stream size                              : 92.1 MiB (3%)
Title                                    : European
Language                                 : Spanish (ES)
Service kind                             : Complete Main
Default                                  : No
Forced                                   : No

Audio #11
ID                                       : 12
Format                                   : E-AC-3
Format/Info                              : Enhanced AC-3
Commercial name                          : Dolby Digital Plus
Codec ID                                 : A_EAC3
Duration                                 : 20 min 7 s
Bit rate mode                            : Constant
Bit rate                                 : 640 kb/s
Channel(s)                               : 6 channels
Channel layout                           : L R C LFE Ls Rs
Sampling rate                            : 48.0 kHz
Frame rate                               : 31.250 FPS (1536 SPF)
Compression mode                         : Lossy
Stream size                              : 92.1 MiB (3%)
Language                                 : Finnish
Service kind                             : Complete Main
Default                                  : No
Forced                                   : No

Audio #12
ID                                       : 13
Format                                   : E-AC-3
Format/Info                              : Enhanced AC-3
Commercial name                          : Dolby Digital Plus
Codec ID                                 : A_EAC3
Duration                                 : 20 min 7 s
Bit rate mode                            : Constant
Bit rate                                 : 640 kb/s
Channel(s)                               : 6 channels
Channel layout                           : L R C LFE Ls Rs
Sampling rate                            : 48.0 kHz
Frame rate                               : 31.250 FPS (1536 SPF)
Compression mode                         : Lossy
Stream size                              : 92.1 MiB (3%)
Language                                 : French
Service kind                             : Complete Main
Default                                  : No
Forced                                   : No

Audio #13
ID                                       : 14
Format                                   : E-AC-3
Format/Info                              : Enhanced AC-3
Commercial name                          : Dolby Digital Plus
Codec ID                                 : A_EAC3
Duration                                 : 20 min 7 s
Bit rate mode                            : Constant
Bit rate                                 : 640 kb/s
Channel(s)                               : 6 channels
Channel layout                           : L R C LFE Ls Rs
Sampling rate                            : 48.0 kHz
Frame rate                               : 31.250 FPS (1536 SPF)
Compression mode                         : Lossy
Stream size                              : 92.1 MiB (3%)
Language                                 : Hebrew
Service kind                             : Complete Main
Default                                  : No
Forced                                   : No

Audio #14
ID                                       : 15
Format                                   : E-AC-3
Format/Info                              : Enhanced AC-3
Commercial name                          : Dolby Digital Plus
Codec ID                                 : A_EAC3
Duration                                 : 20 min 7 s
Bit rate mode                            : Constant
Bit rate                                 : 640 kb/s
Channel(s)                               : 6 channels
Channel layout                           : L R C LFE Ls Rs
Sampling rate                            : 48.0 kHz
Frame rate                               : 31.250 FPS (1536 SPF)
Compression mode                         : Lossy
Stream size                              : 92.1 MiB (3%)
Language                                 : Hindi
Service kind                             : Complete Main
Default                                  : No
Forced                                   : No

Audio #15
ID                                       : 16
Format                                   : E-AC-3
Format/Info                              : Enhanced AC-3
Commercial name                          : Dolby Digital Plus
Codec ID                                 : A_EAC3
Duration                                 : 20 min 7 s
Bit rate mode                            : Constant
Bit rate                                 : 640 kb/s
Channel(s)                               : 6 channels
Channel layout                           : L R C LFE Ls Rs
Sampling rate                            : 48.0 kHz
Frame rate                               : 31.250 FPS (1536 SPF)
Compression mode                         : Lossy
Stream size                              : 92.1 MiB (3%)
Language                                 : Croatian
Service kind                             : Complete Main
Default                                  : No
Forced                                   : No

Audio #16
ID                                       : 17
Format                                   : E-AC-3
Format/Info                              : Enhanced AC-3
Commercial name                          : Dolby Digital Plus
Codec ID                                 : A_EAC3
Duration                                 : 20 min 7 s
Bit rate mode                            : Constant
Bit rate                                 : 640 kb/s
Channel(s)                               : 6 channels
Channel layout                           : L R C LFE Ls Rs
Sampling rate                            : 48.0 kHz
Frame rate                               : 31.250 FPS (1536 SPF)
Compression mode                         : Lossy
Stream size                              : 92.1 MiB (3%)
Language                                 : Hungarian
Service kind                             : Complete Main
Default                                  : No
Forced                                   : No

Audio #17
ID                                       : 18
Format                                   : E-AC-3
Format/Info                              : Enhanced AC-3
Commercial name                          : Dolby Digital Plus
Codec ID                                 : A_EAC3
Duration                                 : 20 min 7 s
Bit rate mode                            : Constant
Bit rate                                 : 640 kb/s
Channel(s)                               : 6 channels
Channel layout                           : L R C LFE Ls Rs
Sampling rate                            : 48.0 kHz
Frame rate                               : 31.250 FPS (1536 SPF)
Compression mode                         : Lossy
Stream size                              : 92.1 MiB (3%)
Language                                 : Indonesian
Service kind                             : Complete Main
Default                                  : No
Forced                                   : No

Audio #18
ID                                       : 19
Format                                   : E-AC-3
Format/Info                              : Enhanced AC-3
Commercial name                          : Dolby Digital Plus
Codec ID                                 : A_EAC3
Duration                                 : 20 min 7 s
Bit rate mode                            : Constant
Bit rate                                 : 640 kb/s
Channel(s)                               : 6 channels
Channel layout                           : L R C LFE Ls Rs
Sampling rate                            : 48.0 kHz
Frame rate                               : 31.250 FPS (1536 SPF)
Compression mode                         : Lossy
Stream size                              : 92.1 MiB (3%)
Language                                 : Italian
Service kind                             : Complete Main
Default                                  : No
Forced                                   : No

Audio #19
ID                                       : 20
Format                                   : E-AC-3
Format/Info                              : Enhanced AC-3
Commercial name                          : Dolby Digital Plus
Codec ID                                 : A_EAC3
Duration                                 : 20 min 7 s
Bit rate mode                            : Constant
Bit rate                                 : 640 kb/s
Channel(s)                               : 6 channels
Channel layout                           : L R C LFE Ls Rs
Sampling rate                            : 48.0 kHz
Frame rate                               : 31.250 FPS (1536 SPF)
Compression mode                         : Lossy
Stream size                              : 92.1 MiB (3%)
Language                                 : Korean
Service kind                             : Complete Main
Default                                  : No
Forced                                   : No

Audio #20
ID                                       : 21
Format                                   : E-AC-3
Format/Info                              : Enhanced AC-3
Commercial name                          : Dolby Digital Plus
Codec ID                                 : A_EAC3
Duration                                 : 20 min 7 s
Bit rate mode                            : Constant
Bit rate                                 : 640 kb/s
Channel(s)                               : 6 channels
Channel layout                           : L R C LFE Ls Rs
Sampling rate                            : 48.0 kHz
Frame rate                               : 31.250 FPS (1536 SPF)
Compression mode                         : Lossy
Stream size                              : 92.1 MiB (3%)
Language                                 : Malay
Service kind                             : Complete Main
Default                                  : No
Forced                                   : No

Audio #21
ID                                       : 22
Format                                   : E-AC-3
Format/Info                              : Enhanced AC-3
Commercial name                          : Dolby Digital Plus
Codec ID                                 : A_EAC3
Duration                                 : 20 min 7 s
Bit rate mode                            : Constant
Bit rate                                 : 640 kb/s
Channel(s)                               : 6 channels
Channel layout                           : L R C LFE Ls Rs
Sampling rate                            : 48.0 kHz
Frame rate                               : 31.250 FPS (1536 SPF)
Compression mode                         : Lossy
Stream size                              : 92.1 MiB (3%)
Language                                 : Norwegian Bokmal
Service kind                             : Complete Main
Default                                  : No
Forced                                   : No

Audio #22
ID                                       : 23
Format                                   : E-AC-3
Format/Info                              : Enhanced AC-3
Commercial name                          : Dolby Digital Plus
Codec ID                                 : A_EAC3
Duration                                 : 20 min 7 s
Bit rate mode                            : Constant
Bit rate                                 : 640 kb/s
Channel(s)                               : 6 channels
Channel layout                           : L R C LFE Ls Rs
Sampling rate                            : 48.0 kHz
Frame rate                               : 31.250 FPS (1536 SPF)
Compression mode                         : Lossy
Stream size                              : 92.1 MiB (3%)
Language                                 : Dutch
Service kind                             : Complete Main
Default                                  : No
Forced                                   : No

Audio #23
ID                                       : 24
Format                                   : E-AC-3
Format/Info                              : Enhanced AC-3
Commercial name                          : Dolby Digital Plus
Codec ID                                 : A_EAC3
Duration                                 : 20 min 7 s
Bit rate mode                            : Constant
Bit rate                                 : 640 kb/s
Channel(s)                               : 6 channels
Channel layout                           : L R C LFE Ls Rs
Sampling rate                            : 48.0 kHz
Frame rate                               : 31.250 FPS (1536 SPF)
Compression mode                         : Lossy
Stream size                              : 92.1 MiB (3%)
Language                                 : Polish
Service kind                             : Complete Main
Default                                  : No
Forced                                   : No

Audio #24
ID                                       : 25
Format                                   : E-AC-3
Format/Info                              : Enhanced AC-3
Commercial name                          : Dolby Digital Plus
Codec ID                                 : A_EAC3
Duration                                 : 20 min 7 s
Bit rate mode                            : Constant
Bit rate                                 : 640 kb/s
Channel(s)                               : 6 channels
Channel layout                           : L R C LFE Ls Rs
Sampling rate                            : 48.0 kHz
Frame rate                               : 31.250 FPS (1536 SPF)
Compression mode                         : Lossy
Stream size                              : 92.1 MiB (3%)
Title                                    : Brazilian
Language                                 : Portuguese (BR)
Service kind                             : Complete Main
Default                                  : No
Forced                                   : No

Audio #25
ID                                       : 26
Format                                   : E-AC-3
Format/Info                              : Enhanced AC-3
Commercial name                          : Dolby Digital Plus
Codec ID                                 : A_EAC3
Duration                                 : 20 min 7 s
Bit rate mode                            : Constant
Bit rate                                 : 640 kb/s
Channel(s)                               : 6 channels
Channel layout                           : L R C LFE Ls Rs
Sampling rate                            : 48.0 kHz
Frame rate                               : 31.250 FPS (1536 SPF)
Compression mode                         : Lossy
Stream size                              : 92.1 MiB (3%)
Title                                    : European
Language                                 : Portuguese (PT)
Service kind                             : Complete Main
Default                                  : No
Forced                                   : No

Audio #26
ID                                       : 27
Format                                   : E-AC-3
Format/Info                              : Enhanced AC-3
Commercial name                          : Dolby Digital Plus
Codec ID                                 : A_EAC3
Duration                                 : 20 min 7 s
Bit rate mode                            : Constant
Bit rate                                 : 640 kb/s
Channel(s)                               : 6 channels
Channel layout                           : L R C LFE Ls Rs
Sampling rate                            : 48.0 kHz
Frame rate                               : 31.250 FPS (1536 SPF)
Compression mode                         : Lossy
Stream size                              : 92.1 MiB (3%)
Language                                 : Romanian
Service kind                             : Complete Main
Default                                  : No
Forced                                   : No

Audio #27
ID                                       : 28
Format                                   : E-AC-3
Format/Info                              : Enhanced AC-3
Commercial name                          : Dolby Digital Plus
Codec ID                                 : A_EAC3
Duration                                 : 20 min 7 s
Bit rate mode                            : Constant
Bit rate                                 : 640 kb/s
Channel(s)                               : 6 channels
Channel layout                           : L R C LFE Ls Rs
Sampling rate                            : 48.0 kHz
Frame rate                               : 31.250 FPS (1536 SPF)
Compression mode                         : Lossy
Stream size                              : 92.1 MiB (3%)
Language                                 : Swedish
Service kind                             : Complete Main
Default                                  : No
Forced                                   : No

Audio #28
ID                                       : 29
Format                                   : E-AC-3
Format/Info                              : Enhanced AC-3
Commercial name                          : Dolby Digital Plus
Codec ID                                 : A_EAC3
Duration                                 : 20 min 7 s
Bit rate mode                            : Constant
Bit rate                                 : 640 kb/s
Channel(s)                               : 6 channels
Channel layout                           : L R C LFE Ls Rs
Sampling rate                            : 48.0 kHz
Frame rate                               : 31.250 FPS (1536 SPF)
Compression mode                         : Lossy
Stream size                              : 92.1 MiB (3%)
Language                                 : Tamil
Service kind                             : Complete Main
Default                                  : No
Forced                                   : No

Audio #29
ID                                       : 30
Format                                   : E-AC-3
Format/Info                              : Enhanced AC-3
Commercial name                          : Dolby Digital Plus
Codec ID                                 : A_EAC3
Duration                                 : 20 min 7 s
Bit rate mode                            : Constant
Bit rate                                 : 640 kb/s
Channel(s)                               : 6 channels
Channel layout                           : L R C LFE Ls Rs
Sampling rate                            : 48.0 kHz
Frame rate                               : 31.250 FPS (1536 SPF)
Compression mode                         : Lossy
Stream size                              : 92.1 MiB (3%)
Language                                 : Telugu
Service kind                             : Complete Main
Default                                  : No
Forced                                   : No

Audio #30
ID                                       : 31
Format                                   : E-AC-3
Format/Info                              : Enhanced AC-3
Commercial name                          : Dolby Digital Plus
Codec ID                                 : A_EAC3
Duration                                 : 20 min 7 s
Bit rate mode                            : Constant
Bit rate                                 : 640 kb/s
Channel(s)                               : 6 channels
Channel layout                           : L R C LFE Ls Rs
Sampling rate                            : 48.0 kHz
Frame rate                               : 31.250 FPS (1536 SPF)
Compression mode                         : Lossy
Stream size                              : 92.1 MiB (3%)
Language                                 : Thai
Service kind                             : Complete Main
Default                                  : No
Forced                                   : No

Audio #31
ID                                       : 32
Format                                   : E-AC-3
Format/Info                              : Enhanced AC-3
Commercial name                          : Dolby Digital Plus
Codec ID                                 : A_EAC3
Duration                                 : 20 min 7 s
Bit rate mode                            : Constant
Bit rate                                 : 640 kb/s
Channel(s)                               : 6 channels
Channel layout                           : L R C LFE Ls Rs
Sampling rate                            : 48.0 kHz
Frame rate                               : 31.250 FPS (1536 SPF)
Compression mode                         : Lossy
Stream size                              : 92.1 MiB (3%)
Language                                 : Turkish
Service kind                             : Complete Main
Default                                  : No
Forced                                   : No

Audio #32
ID                                       : 33
Format                                   : E-AC-3
Format/Info                              : Enhanced AC-3
Commercial name                          : Dolby Digital Plus
Codec ID                                 : A_EAC3
Duration                                 : 20 min 7 s
Bit rate mode                            : Constant
Bit rate                                 : 640 kb/s
Channel(s)                               : 6 channels
Channel layout                           : L R C LFE Ls Rs
Sampling rate                            : 48.0 kHz
Frame rate                               : 31.250 FPS (1536 SPF)
Compression mode                         : Lossy
Stream size                              : 92.1 MiB (3%)
Language                                 : Ukrainian
Service kind                             : Complete Main
Default                                  : No
Forced                                   : No

Audio #33
ID                                       : 34
Format                                   : E-AC-3
Format/Info                              : Enhanced AC-3
Commercial name                          : Dolby Digital Plus
Codec ID                                 : A_EAC3
Duration                                 : 20 min 7 s
Bit rate mode                            : Constant
Bit rate                                 : 640 kb/s
Channel(s)                               : 6 channels
Channel layout                           : L R C LFE Ls Rs
Sampling rate                            : 48.0 kHz
Frame rate                               : 31.250 FPS (1536 SPF)
Compression mode                         : Lossy
Stream size                              : 92.1 MiB (3%)
Language                                 : Vietnamese
Service kind                             : Complete Main
Default                                  : No
Forced                                   : No

Text #1
ID                                       : 35
Format                                   : UTF-8
Codec ID                                 : S_TEXT/UTF8
Codec ID/Info                            : UTF-8 Plain Text
Duration                                 : 2 min 12 s
Bit rate                                 : 39 b/s
Frame rate                               : 0.120 FPS
Count of elements                        : 16
Stream size                              : 655 Bytes (0%)
Title                                    : Forced
Language                                 : English
Default                                  : No
Forced                                   : Yes

Text #2
ID                                       : 36
Format                                   : UTF-8
Codec ID                                 : S_TEXT/UTF8
Codec ID/Info                            : UTF-8 Plain Text
Duration                                 : 12 min 54 s
Bit rate                                 : 58 b/s
Frame rate                               : 0.221 FPS
Count of elements                        : 171
Stream size                              : 5.52 KiB (0%)
Language                                 : English
Default                                  : Yes
Forced                                   : No

Text #3
ID                                       : 37
Format                                   : UTF-8
Codec ID                                 : S_TEXT/UTF8
Codec ID/Info                            : UTF-8 Plain Text
Duration                                 : 13 min 59 s
Bit rate                                 : 64 b/s
Frame rate                               : 0.260 FPS
Count of elements                        : 218
Stream size                              : 6.62 KiB (0%)
Language                                 : English
Default                                  : No
Forced                                   : No

Text #4
ID                                       : 38
Format                                   : UTF-8
Codec ID                                 : S_TEXT/UTF8
Codec ID/Info                            : UTF-8 Plain Text
Duration                                 : 16 min 43 s
Bit rate                                 : 68 b/s
Frame rate                               : 0.280 FPS
Count of elements                        : 281
Stream size                              : 8.36 KiB (0%)
Title                                    : SDH
Language                                 : English
Default                                  : No
Forced                                   : No

Text #5
ID                                       : 39
Format                                   : UTF-8
Codec ID                                 : S_TEXT/UTF8
Codec ID/Info                            : UTF-8 Plain Text
Duration                                 : 16 min 41 s
Bit rate                                 : 79 b/s
Frame rate                               : 0.261 FPS
Count of elements                        : 261
Stream size                              : 9.67 KiB (0%)
Title                                    : SDH
Language                                 : Japanese
Default                                  : No
Forced                                   : No

Text #6
ID                                       : 40
Format                                   : UTF-8
Codec ID                                 : S_TEXT/UTF8
Codec ID/Info                            : UTF-8 Plain Text
Duration                                 : 9 min 58 s
Bit rate                                 : 13 b/s
Frame rate                               : 0.033 FPS
Count of elements                        : 20
Stream size                              : 1 020 Bytes (0%)
Title                                    : Forced
Language                                 : Arabic
Default                                  : No
Forced                                   : Yes

Text #7
ID                                       : 41
Format                                   : UTF-8
Codec ID                                 : S_TEXT/UTF8
Codec ID/Info                            : UTF-8 Plain Text
Duration                                 : 16 min 29 s
Bit rate                                 : 74 b/s
Frame rate                               : 0.186 FPS
Count of elements                        : 184
Stream size                              : 8.96 KiB (0%)
Language                                 : Arabic
Default                                  : No
Forced                                   : No

Text #8
ID                                       : 42
Format                                   : UTF-8
Codec ID                                 : S_TEXT/UTF8
Codec ID/Info                            : UTF-8 Plain Text
Duration                                 : 3 min 21 s
Bit rate                                 : 36 b/s
Frame rate                               : 0.173 FPS
Count of elements                        : 35
Stream size                              : 933 Bytes (0%)
Title                                    : Forced
Language                                 : Czech
Default                                  : No
Forced                                   : Yes

Text #9
ID                                       : 43
Format                                   : UTF-8
Codec ID                                 : S_TEXT/UTF8
Codec ID/Info                            : UTF-8 Plain Text
Duration                                 : 16 min 29 s
Bit rate                                 : 46 b/s
Frame rate                               : 0.193 FPS
Count of elements                        : 191
Stream size                              : 5.57 KiB (0%)
Language                                 : Czech
Default                                  : No
Forced                                   : No

Text #10
ID                                       : 44
Format                                   : UTF-8
Codec ID                                 : S_TEXT/UTF8
Codec ID/Info                            : UTF-8 Plain Text
Duration                                 : 16 min 13 s
Bit rate                                 : 48 b/s
Frame rate                               : 0.194 FPS
Count of elements                        : 189
Stream size                              : 5.77 KiB (0%)
Language                                 : Danish
Default                                  : No
Forced                                   : No

Text #11
ID                                       : 45
Format                                   : UTF-8
Codec ID                                 : S_TEXT/UTF8
Codec ID/Info                            : UTF-8 Plain Text
Duration                                 : 3 min 21 s
Bit rate                                 : 40 b/s
Frame rate                               : 0.169 FPS
Count of elements                        : 34
Stream size                              : 1 011 Bytes (0%)
Title                                    : Forced
Language                                 : German
Default                                  : No
Forced                                   : Yes

Text #12
ID                                       : 46
Format                                   : UTF-8
Codec ID                                 : S_TEXT/UTF8
Codec ID/Info                            : UTF-8 Plain Text
Duration                                 : 16 min 29 s
Bit rate                                 : 49 b/s
Frame rate                               : 0.186 FPS
Count of elements                        : 184
Stream size                              : 6.00 KiB (0%)
Language                                 : German
Default                                  : No
Forced                                   : No

Text #13
ID                                       : 47
Format                                   : UTF-8
Codec ID                                 : S_TEXT/UTF8
Codec ID/Info                            : UTF-8 Plain Text
Duration                                 : 14 min 31 s
Bit rate                                 : 82 b/s
Frame rate                               : 0.280 FPS
Count of elements                        : 244
Stream size                              : 8.79 KiB (0%)
Title                                    : SDH
Language                                 : German
Default                                  : No
Forced                                   : No

Text #14
ID                                       : 48
Format                                   : UTF-8
Codec ID                                 : S_TEXT/UTF8
Codec ID/Info                            : UTF-8 Plain Text
Duration                                 : 9 min 58 s
Bit rate                                 : 27 b/s
Frame rate                               : 0.057 FPS
Count of elements                        : 34
Stream size                              : 2.00 KiB (0%)
Title                                    : Forced
Language                                 : Greek
Default                                  : No
Forced                                   : Yes

Text #15
ID                                       : 49
Format                                   : UTF-8
Codec ID                                 : S_TEXT/UTF8
Codec ID/Info                            : UTF-8 Plain Text
Duration                                 : 16 min 29 s
Bit rate                                 : 79 b/s
Frame rate                               : 0.186 FPS
Count of elements                        : 184
Stream size                              : 9.59 KiB (0%)
Language                                 : Greek
Default                                  : No
Forced                                   : No

Text #16
ID                                       : 50
Format                                   : UTF-8
Codec ID                                 : S_TEXT/UTF8
Codec ID/Info                            : UTF-8 Plain Text
Duration                                 : 16 min 29 s
Bit rate                                 : 48 b/s
Frame rate                               : 0.193 FPS
Count of elements                        : 191
Stream size                              : 5.81 KiB (0%)
Title                                    : Latin American
Language                                 : Spanish (Latin America)
Default                                  : No
Forced                                   : No

Text #17
ID                                       : 51
Format                                   : UTF-8
Codec ID                                 : S_TEXT/UTF8
Codec ID/Info                            : UTF-8 Plain Text
Duration                                 : 17 min 0 s
Bit rate                                 : 58 b/s
Frame rate                               : 0.235 FPS
Count of elements                        : 240
Stream size                              : 7.35 KiB (0%)
Title                                    : Latin American (SDH)
Language                                 : Spanish (Latin America)
Default                                  : No
Forced                                   : No

Text #18
ID                                       : 52
Format                                   : UTF-8
Codec ID                                 : S_TEXT/UTF8
Codec ID/Info                            : UTF-8 Plain Text
Duration                                 : 3 min 21 s
Bit rate                                 : 34 b/s
Frame rate                               : 0.169 FPS
Count of elements                        : 34
Stream size                              : 868 Bytes (0%)
Title                                    : European (Forced)
Language                                 : Spanish (ES)
Default                                  : No
Forced                                   : Yes

Text #19
ID                                       : 53
Format                                   : UTF-8
Codec ID                                 : S_TEXT/UTF8
Codec ID/Info                            : UTF-8 Plain Text
Duration                                 : 16 min 29 s
Bit rate                                 : 47 b/s
Frame rate                               : 0.193 FPS
Count of elements                        : 191
Stream size                              : 5.71 KiB (0%)
Title                                    : European
Language                                 : Spanish (ES)
Default                                  : No
Forced                                   : No

Text #20
ID                                       : 54
Format                                   : UTF-8
Codec ID                                 : S_TEXT/UTF8
Codec ID/Info                            : UTF-8 Plain Text
Duration                                 : 16 min 29 s
Bit rate                                 : 46 b/s
Frame rate                               : 0.193 FPS
Count of elements                        : 191
Stream size                              : 5.65 KiB (0%)
Language                                 : Finnish
Default                                  : No
Forced                                   : No

Text #21
ID                                       : 55
Format                                   : UTF-8
Codec ID                                 : S_TEXT/UTF8
Codec ID/Info                            : UTF-8 Plain Text
Duration                                 : 16 min 29 s
Bit rate                                 : 49 b/s
Frame rate                               : 0.191 FPS
Count of elements                        : 189
Stream size                              : 5.98 KiB (0%)
Language                                 : Filipino
Default                                  : No
Forced                                   : No

Text #22
ID                                       : 56
Format                                   : UTF-8
Codec ID                                 : S_TEXT/UTF8
Codec ID/Info                            : UTF-8 Plain Text
Duration                                 : 14 min 18 s
Bit rate                                 : 8 b/s
Frame rate                               : 0.044 FPS
Count of elements                        : 38
Stream size                              : 955 Bytes (0%)
Title                                    : Forced
Language                                 : French
Default                                  : No
Forced                                   : Yes

Text #23
ID                                       : 57
Format                                   : UTF-8
Codec ID                                 : S_TEXT/UTF8
Codec ID/Info                            : UTF-8 Plain Text
Duration                                 : 16 min 29 s
Bit rate                                 : 49 b/s
Frame rate                               : 0.193 FPS
Count of elements                        : 191
Stream size                              : 5.98 KiB (0%)
Language                                 : French
Default                                  : No
Forced                                   : No

Text #24
ID                                       : 58
Format                                   : UTF-8
Codec ID                                 : S_TEXT/UTF8
Codec ID/Info                            : UTF-8 Plain Text
Duration                                 : 17 min 2 s
Bit rate                                 : 80 b/s
Frame rate                               : 0.308 FPS
Count of elements                        : 315
Stream size                              : 10.0 KiB (0%)
Title                                    : SDH
Language                                 : French
Default                                  : No
Forced                                   : No

Text #25
ID                                       : 59
Format                                   : UTF-8
Codec ID                                 : S_TEXT/UTF8
Codec ID/Info                            : UTF-8 Plain Text
Duration                                 : 9 min 58 s
Bit rate                                 : 20 b/s
Frame rate                               : 0.062 FPS
Count of elements                        : 37
Stream size                              : 1.51 KiB (0%)
Title                                    : Forced
Language                                 : Hebrew
Default                                  : No
Forced                                   : Yes

Text #26
ID                                       : 60
Format                                   : UTF-8
Codec ID                                 : S_TEXT/UTF8
Codec ID/Info                            : UTF-8 Plain Text
Duration                                 : 16 min 29 s
Bit rate                                 : 65 b/s
Frame rate                               : 0.186 FPS
Count of elements                        : 184
Stream size                              : 7.85 KiB (0%)
Language                                 : Hebrew
Default                                  : No
Forced                                   : No

Text #27
ID                                       : 61
Format                                   : UTF-8
Codec ID                                 : S_TEXT/UTF8
Codec ID/Info                            : UTF-8 Plain Text
Duration                                 : 5 min 14 s
Bit rate                                 : 25 b/s
Frame rate                               : 0.111 FPS
Count of elements                        : 35
Stream size                              : 984 Bytes (0%)
Title                                    : Latin (Forced)
Language                                 : Hindi (Latn)
Default                                  : No
Forced                                   : Yes

Text #28
ID                                       : 62
Format                                   : UTF-8
Codec ID                                 : S_TEXT/UTF8
Codec ID/Info                            : UTF-8 Plain Text
Duration                                 : 3 min 21 s
Bit rate                                 : 32 b/s
Frame rate                               : 0.173 FPS
Count of elements                        : 35
Stream size                              : 827 Bytes (0%)
Title                                    : Forced
Language                                 : Croatian
Default                                  : No
Forced                                   : Yes

Text #29
ID                                       : 63
Format                                   : UTF-8
Codec ID                                 : S_TEXT/UTF8
Codec ID/Info                            : UTF-8 Plain Text
Duration                                 : 16 min 29 s
Bit rate                                 : 38 b/s
Frame rate                               : 0.184 FPS
Count of elements                        : 182
Stream size                              : 4.65 KiB (0%)
Language                                 : Croatian
Default                                  : No
Forced                                   : No

Text #30
ID                                       : 64
Format                                   : UTF-8
Codec ID                                 : S_TEXT/UTF8
Codec ID/Info                            : UTF-8 Plain Text
Duration                                 : 9 min 58 s
Bit rate                                 : 13 b/s
Frame rate                               : 0.062 FPS
Count of elements                        : 37
Stream size                              : 1.02 KiB (0%)
Title                                    : Forced
Language                                 : Hungarian
Default                                  : No
Forced                                   : Yes

Text #31
ID                                       : 65
Format                                   : UTF-8
Codec ID                                 : S_TEXT/UTF8
Codec ID/Info                            : UTF-8 Plain Text
Duration                                 : 16 min 29 s
Bit rate                                 : 47 b/s
Frame rate                               : 0.191 FPS
Count of elements                        : 189
Stream size                              : 5.70 KiB (0%)
Language                                 : Hungarian
Default                                  : No
Forced                                   : No

Text #32
ID                                       : 66
Format                                   : UTF-8
Codec ID                                 : S_TEXT/UTF8
Codec ID/Info                            : UTF-8 Plain Text
Duration                                 : 3 min 21 s
Bit rate                                 : 40 b/s
Frame rate                               : 0.174 FPS
Count of elements                        : 35
Stream size                              : 1.00 KiB (0%)
Title                                    : Forced
Language                                 : Indonesian
Default                                  : No
Forced                                   : Yes

Text #33
ID                                       : 67
Format                                   : UTF-8
Codec ID                                 : S_TEXT/UTF8
Codec ID/Info                            : UTF-8 Plain Text
Duration                                 : 16 min 29 s
Bit rate                                 : 41 b/s
Frame rate                               : 0.173 FPS
Count of elements                        : 171
Stream size                              : 5.03 KiB (0%)
Language                                 : Indonesian
Default                                  : No
Forced                                   : No

Text #34
ID                                       : 68
Format                                   : UTF-8
Codec ID                                 : S_TEXT/UTF8
Codec ID/Info                            : UTF-8 Plain Text
Duration                                 : 14 min 19 s
Bit rate                                 : 9 b/s
Frame rate                               : 0.047 FPS
Count of elements                        : 40
Stream size                              : 1.05 KiB (0%)
Title                                    : Forced
Language                                 : Italian
Default                                  : No
Forced                                   : Yes

Text #35
ID                                       : 69
Format                                   : UTF-8
Codec ID                                 : S_TEXT/UTF8
Codec ID/Info                            : UTF-8 Plain Text
Duration                                 : 16 min 29 s
Bit rate                                 : 42 b/s
Frame rate                               : 0.186 FPS
Count of elements                        : 184
Stream size                              : 5.12 KiB (0%)
Language                                 : Italian
Default                                  : No
Forced                                   : No

Text #36
ID                                       : 70
Format                                   : UTF-8
Codec ID                                 : S_TEXT/UTF8
Codec ID/Info                            : UTF-8 Plain Text
Duration                                 : 9 min 58 s
Bit rate                                 : 17 b/s
Frame rate                               : 0.063 FPS
Count of elements                        : 38
Stream size                              : 1.26 KiB (0%)
Title                                    : Forced
Language                                 : Korean
Default                                  : No
Forced                                   : Yes

Text #37
ID                                       : 71
Format                                   : UTF-8
Codec ID                                 : S_TEXT/UTF8
Codec ID/Info                            : UTF-8 Plain Text
Duration                                 : 13 min 45 s
Bit rate                                 : 59 b/s
Frame rate                               : 0.229 FPS
Count of elements                        : 189
Stream size                              : 6.03 KiB (0%)
Language                                 : Korean
Default                                  : No
Forced                                   : No

Text #38
ID                                       : 72
Format                                   : UTF-8
Codec ID                                 : S_TEXT/UTF8
Codec ID/Info                            : UTF-8 Plain Text
Duration                                 : 7 min 51 s
Bit rate                                 : 0 b/s
Frame rate                               : 0.004 FPS
Count of elements                        : 2
Stream size                              : 34.0 Bytes (0%)
Title                                    : Forced
Language                                 : Malay
Default                                  : No
Forced                                   : Yes

Text #39
ID                                       : 73
Format                                   : UTF-8
Codec ID                                 : S_TEXT/UTF8
Codec ID/Info                            : UTF-8 Plain Text
Duration                                 : 16 min 29 s
Bit rate                                 : 48 b/s
Frame rate                               : 0.190 FPS
Count of elements                        : 188
Stream size                              : 5.88 KiB (0%)
Language                                 : Malay
Default                                  : No
Forced                                   : No

Text #40
ID                                       : 74
Format                                   : UTF-8
Codec ID                                 : S_TEXT/UTF8
Codec ID/Info                            : UTF-8 Plain Text
Duration                                 : 3 min 22 s
Bit rate                                 : 38 b/s
Frame rate                               : 0.118 FPS
Count of elements                        : 24
Stream size                              : 974 Bytes (0%)
Title                                    : Forced
Language                                 : Norwegian Bokmal
Default                                  : No
Forced                                   : Yes

Text #41
ID                                       : 75
Format                                   : UTF-8
Codec ID                                 : S_TEXT/UTF8
Codec ID/Info                            : UTF-8 Plain Text
Duration                                 : 16 min 29 s
Bit rate                                 : 48 b/s
Frame rate                               : 0.192 FPS
Count of elements                        : 190
Stream size                              : 5.80 KiB (0%)
Language                                 : Norwegian Bokmal
Default                                  : No
Forced                                   : No

Text #42
ID                                       : 76
Format                                   : UTF-8
Codec ID                                 : S_TEXT/UTF8
Codec ID/Info                            : UTF-8 Plain Text
Duration                                 : 16 min 29 s
Bit rate                                 : 43 b/s
Frame rate                               : 0.186 FPS
Count of elements                        : 184
Stream size                              : 5.22 KiB (0%)
Language                                 : Dutch
Default                                  : No
Forced                                   : No

Text #43
ID                                       : 77
Format                                   : UTF-8
Codec ID                                 : S_TEXT/UTF8
Codec ID/Info                            : UTF-8 Plain Text
Duration                                 : 16 min 29 s
Bit rate                                 : 45 b/s
Frame rate                               : 0.186 FPS
Count of elements                        : 184
Stream size                              : 5.49 KiB (0%)
Language                                 : Polish
Default                                  : No
Forced                                   : No

Text #44
ID                                       : 78
Format                                   : UTF-8
Codec ID                                 : S_TEXT/UTF8
Codec ID/Info                            : UTF-8 Plain Text
Duration                                 : 3 min 21 s
Bit rate                                 : 39 b/s
Frame rate                               : 0.164 FPS
Count of elements                        : 33
Stream size                              : 990 Bytes (0%)
Title                                    : Brazilian (Forced)
Language                                 : Portuguese (BR)
Default                                  : No
Forced                                   : Yes

Text #45
ID                                       : 79
Format                                   : UTF-8
Codec ID                                 : S_TEXT/UTF8
Codec ID/Info                            : UTF-8 Plain Text
Duration                                 : 16 min 29 s
Bit rate                                 : 43 b/s
Frame rate                               : 0.191 FPS
Count of elements                        : 189
Stream size                              : 5.28 KiB (0%)
Title                                    : Brazilian
Language                                 : Portuguese (BR)
Default                                  : No
Forced                                   : No

Text #46
ID                                       : 80
Format                                   : UTF-8
Codec ID                                 : S_TEXT/UTF8
Codec ID/Info                            : UTF-8 Plain Text
Duration                                 : 3 min 21 s
Bit rate                                 : 39 b/s
Frame rate                               : 0.179 FPS
Count of elements                        : 36
Stream size                              : 995 Bytes (0%)
Title                                    : European (Forced)
Language                                 : Portuguese (PT)
Default                                  : No
Forced                                   : Yes

Text #47
ID                                       : 81
Format                                   : UTF-8
Codec ID                                 : S_TEXT/UTF8
Codec ID/Info                            : UTF-8 Plain Text
Duration                                 : 16 min 29 s
Bit rate                                 : 46 b/s
Frame rate                               : 0.185 FPS
Count of elements                        : 183
Stream size                              : 5.57 KiB (0%)
Title                                    : European
Language                                 : Portuguese (PT)
Default                                  : No
Forced                                   : No

Text #48
ID                                       : 82
Format                                   : UTF-8
Codec ID                                 : S_TEXT/UTF8
Codec ID/Info                            : UTF-8 Plain Text
Duration                                 : 3 min 21 s
Bit rate                                 : 36 b/s
Frame rate                               : 0.174 FPS
Count of elements                        : 35
Stream size                              : 917 Bytes (0%)
Title                                    : Forced
Language                                 : Romanian
Default                                  : No
Forced                                   : Yes

Text #49
ID                                       : 83
Format                                   : UTF-8
Codec ID                                 : S_TEXT/UTF8
Codec ID/Info                            : UTF-8 Plain Text
Duration                                 : 16 min 29 s
Bit rate                                 : 47 b/s
Frame rate                               : 0.191 FPS
Count of elements                        : 189
Stream size                              : 5.79 KiB (0%)
Language                                 : Romanian
Default                                  : No
Forced                                   : No

Text #50
ID                                       : 84
Format                                   : UTF-8
Codec ID                                 : S_TEXT/UTF8
Codec ID/Info                            : UTF-8 Plain Text
Duration                                 : 16 min 29 s
Bit rate                                 : 76 b/s
Frame rate                               : 0.193 FPS
Count of elements                        : 191
Stream size                              : 9.25 KiB (0%)
Language                                 : Russian
Default                                  : No
Forced                                   : No

Text #51
ID                                       : 85
Format                                   : UTF-8
Codec ID                                 : S_TEXT/UTF8
Codec ID/Info                            : UTF-8 Plain Text
Duration                                 : 16 min 29 s
Bit rate                                 : 46 b/s
Frame rate                               : 0.186 FPS
Count of elements                        : 184
Stream size                              : 5.61 KiB (0%)
Language                                 : Swedish
Default                                  : No
Forced                                   : No

Text #52
ID                                       : 86
Format                                   : UTF-8
Codec ID                                 : S_TEXT/UTF8
Codec ID/Info                            : UTF-8 Plain Text
Duration                                 : 12 min 45 s
Bit rate                                 : 30 b/s
Frame rate                               : 0.047 FPS
Count of elements                        : 36
Stream size                              : 2.85 KiB (0%)
Title                                    : Forced
Language                                 : Tamil
Default                                  : No
Forced                                   : Yes

Text #53
ID                                       : 87
Format                                   : UTF-8
Codec ID                                 : S_TEXT/UTF8
Codec ID/Info                            : UTF-8 Plain Text
Duration                                 : 12 min 9 s
Bit rate                                 : 1 b/s
Frame rate                               : 0.004 FPS
Count of elements                        : 3
Stream size                              : 136 Bytes (0%)
Title                                    : Forced
Language                                 : Telugu
Default                                  : No
Forced                                   : Yes

Text #54
ID                                       : 88
Format                                   : UTF-8
Codec ID                                 : S_TEXT/UTF8
Codec ID/Info                            : UTF-8 Plain Text
Duration                                 : 3 min 21 s
Bit rate                                 : 90 b/s
Frame rate                               : 0.159 FPS
Count of elements                        : 32
Stream size                              : 2.22 KiB (0%)
Title                                    : Forced
Language                                 : Thai
Default                                  : No
Forced                                   : Yes

Text #55
ID                                       : 89
Format                                   : UTF-8
Codec ID                                 : S_TEXT/UTF8
Codec ID/Info                            : UTF-8 Plain Text
Duration                                 : 16 min 29 s
Bit rate                                 : 108 b/s
Frame rate                               : 0.191 FPS
Count of elements                        : 189
Stream size                              : 13.1 KiB (0%)
Language                                 : Thai
Default                                  : No
Forced                                   : No

Text #56
ID                                       : 90
Format                                   : UTF-8
Codec ID                                 : S_TEXT/UTF8
Codec ID/Info                            : UTF-8 Plain Text
Duration                                 : 16 min 29 s
Bit rate                                 : 47 b/s
Frame rate                               : 0.186 FPS
Count of elements                        : 184
Stream size                              : 5.76 KiB (0%)
Language                                 : Turkish
Default                                  : No
Forced                                   : No

Text #57
ID                                       : 91
Format                                   : UTF-8
Codec ID                                 : S_TEXT/UTF8
Codec ID/Info                            : UTF-8 Plain Text
Duration                                 : 3 min 25 s
Bit rate                                 : 59 b/s
Frame rate                               : 0.151 FPS
Count of elements                        : 31
Stream size                              : 1.48 KiB (0%)
Title                                    : Forced
Language                                 : Ukrainian
Default                                  : No
Forced                                   : Yes

Text #58
ID                                       : 92
Format                                   : UTF-8
Codec ID                                 : S_TEXT/UTF8
Codec ID/Info                            : UTF-8 Plain Text
Duration                                 : 16 min 29 s
Bit rate                                 : 77 b/s
Frame rate                               : 0.193 FPS
Count of elements                        : 191
Stream size                              : 9.36 KiB (0%)
Language                                 : Ukrainian
Default                                  : No
Forced                                   : No

Text #59
ID                                       : 93
Format                                   : UTF-8
Codec ID                                 : S_TEXT/UTF8
Codec ID/Info                            : UTF-8 Plain Text
Duration                                 : 16 min 29 s
Bit rate                                 : 57 b/s
Frame rate                               : 0.190 FPS
Count of elements                        : 188
Stream size                              : 6.99 KiB (0%)
Language                                 : Vietnamese
Default                                  : No
Forced                                   : No

Text #60
ID                                       : 94
Format                                   : UTF-8
Codec ID                                 : S_TEXT/UTF8
Codec ID/Info                            : UTF-8 Plain Text
Duration                                 : 13 min 45 s
Bit rate                                 : 51 b/s
Frame rate                               : 0.229 FPS
Count of elements                        : 189
Stream size                              : 5.20 KiB (0%)
Title                                    : Simplified
Language                                 : Chinese (Simplified)
Default                                  : No
Forced                                   : No

Text #61
ID                                       : 95
Format                                   : UTF-8
Codec ID                                 : S_TEXT/UTF8
Codec ID/Info                            : UTF-8 Plain Text
Duration                                 : 3 min 21 s
Bit rate                                 : 41 b/s
Frame rate                               : 0.179 FPS
Count of elements                        : 36
Stream size                              : 1.02 KiB (0%)
Title                                    : Traditional (Forced)
Language                                 : Chinese (Traditional)
Default                                  : No
Forced                                   : Yes

Text #62
ID                                       : 96
Format                                   : UTF-8
Codec ID                                 : S_TEXT/UTF8
Codec ID/Info                            : UTF-8 Plain Text
Duration                                 : 13 min 45 s
Bit rate                                 : 53 b/s
Frame rate                               : 0.229 FPS
Count of elements                        : 189
Stream size                              : 5.37 KiB (0%)
Title                                    : Traditional
Language                                 : Chinese (Traditional)
Default                                  : No
Forced                                   : No

Menu
00:00:00.000                             : en:Scene 1
00:16:51.450                             : en:Credits

Other Files in this Torrent
Pokemon.Concierge.S01E04.Welcome.to.the.Pokemon.Resort.1080p.NF.WEB-DL.DDP5.1.H.264.MULTi-VARYG.mkv
beta
Anime DDL+NZB mirror
Current Time: 12/07/2024 13:21



About/FAQs

Discord