Pokemon.Concierge.S01E01.Im.Haru.the.New.Concierge.1080p.NF.WEB-DL.DDP5.1.H.264.MULTi-VARYG.mkv


File Size3.870 GB (4,155,808,872 bytes)
DownloadClickNUpload: Part1, Part2
DailyUploads: Part1, Part2, Part3, Part4
DownloadGG: Part1, Part2, Part3, Part4
GoFile: Part1, Part2
KrakenFiles: Part1, Part2, Part3, Part4
MdiaLoad: Part1, Part2
MultiUp: Part1
  • BdUpload
  • DownAce
  • Fichier
  • FileCloud
  • Filerio
  • FilesCdn
  • IndiShare
  • Kbagi
  • Turbobit
  • UpToBox
  • Uppit
, Part2
  • BdUpload
  • DownAce
  • Fichier
  • FileCloud
  • Filerio
  • FilesCdn
  • IndiShare
  • Kbagi
  • Turbobit
  • UpToBox
  • Uppit
, Part3
  • BdUpload
  • DownAce
  • Fichier
  • FileCloud
  • Filerio
  • FilesCdn
  • IndiShare
  • Kbagi
  • Turbobit
  • UpToBox
  • Uppit
, Part4
  • BdUpload
  • DownAce
  • Fichier
  • FileCloud
  • Filerio
  • FilesCdn
  • IndiShare
  • Kbagi
  • Turbobit
  • UpToBox
  • Uppit
, Part5
  • BdUpload
  • DownAce
  • Fichier
  • FileCloud
  • Filerio
  • FilesCdn
  • IndiShare
  • Kbagi
  • Turbobit
  • UpToBox
  • Uppit
, Part6
  • BdUpload
  • DownAce
  • Fichier
  • FileCloud
  • Filerio
  • FilesCdn
  • IndiShare
  • Kbagi
  • Turbobit
  • UpToBox
  • Uppit
, Part7
  • BdUpload
  • DownAce
  • Fichier
  • FileCloud
  • Filerio
  • FilesCdn
  • IndiShare
  • Kbagi
  • Turbobit
  • UpToBox
  • Uppit
, Part8
  • BdUpload
  • DownAce
  • Fichier
  • FileCloud
  • Filerio
  • FilesCdn
  • IndiShare
  • Kbagi
  • Turbobit
  • UpToBox
  • Uppit

Uppit: Part1, Part2, Part3, Part4
HashesCRC32: ECD72829, MD5: AB27AE3DC4C6DFF4C0A142165DD08E22, SHA1: 72DD8E44C68DEAC258AFA1D7CF3EAA0F68AEF616, SHA256: 7938000453F2BEEC255BEAE625B2B52FDCDC9420E377C08BE598B88E39B6C6A5, ED2K: EAA028514396340F3FE40108A38FC688
Screenshots
screenshotscreenshotscreenshotscreenshotscreenshot
SubtitlesAll Attachments | eng [SRT], eng [SRT], SDH [eng, SRT], SDH [jpn, SRT], Forced [ara, SRT], ara [SRT], Forced [cze, SRT], cze [SRT], dan [SRT], ger [SRT], SDH [ger, SRT], Forced [gre, SRT], gre [SRT], Latin American [spa, SRT], Latin American (SDH) [spa, SRT], European [spa, SRT], fin [SRT], fil [SRT], Forced [fre, SRT], fre [SRT], SDH [fre, SRT], Forced [heb, SRT], heb [SRT], hrv [SRT], Forced [hun, SRT], hun [SRT], ind [SRT], Forced [ita, SRT], ita [SRT], Forced [kor, SRT], kor [SRT], Forced [may, SRT], may [SRT], nob [SRT], dut [SRT], pol [SRT], Brazilian [por, SRT], European (Forced) [por, SRT], European [por, SRT], Forced [rum, SRT], rum [SRT], rus [SRT], swe [SRT], Forced [tam, SRT], Forced [tel, SRT], Forced [tha, SRT], tha [SRT], tur [SRT], ukr [SRT], vie [SRT], Simplified [chi, SRT], Traditional (Forced) [chi, SRT], Traditional [chi, SRT]
Additional Info
General
Unique ID                                : 53692208222297228272943989211224527496 (0x2864BE3FB47487C85588E478C096D288)
Complete name                            : Pokemon.Concierge.S01E01.Im.Haru.the.New.Concierge.1080p.NF.WEB-DL.DDP5.1.H.264.MULTi-VARYG.mkv
Format                                   : Matroska
Format version                           : Version 4
File size                                : 3.87 GiB
Duration                                 : 19 min 33 s
Overall bit rate mode                    : Variable
Overall bit rate                         : 28.3 Mb/s
Frame rate                               : 24.000 FPS
Writing application                      : mkvmerge v81.0 ('Milliontown') 64-bit
Writing library                          : libebml v1.4.4 + libmatroska v1.7.1

Video
ID                                       : 1
Format                                   : AVC
Format/Info                              : Advanced Video Codec
Format profile                           : High@L4
Format settings                          : CABAC / 4 Ref Frames
Format settings, CABAC                   : Yes
Format settings, Reference frames        : 4 frames
Codec ID                                 : V_MPEG4/ISO/AVC
Duration                                 : 19 min 33 s
Bit rate mode                            : Variable
Bit rate                                 : 7 193 kb/s
Maximum bit rate                         : 20.0 Mb/s
Width                                    : 1 920 pixels
Height                                   : 1 080 pixels
Display aspect ratio                     : 16:9
Frame rate mode                          : Constant
Frame rate                               : 24.000 FPS
Color space                              : YUV
Chroma subsampling                       : 4:2:0
Bit depth                                : 8 bits
Scan type                                : Progressive
Bits/(Pixel*Frame)                       : 0.145
Stream size                              : 1 006 MiB (25%)
Writing library                          : x264 core 148 r2727 7d026e8
Encoding settings                        : cabac=1 / ref=4 / deblock=1:0:0 / analyse=0x3:0x111 / me=umh / subme=10 / psy=1 / psy_rd=1.00:0.00 / mixed_ref=1 / me_range=120 / chroma_me=1 / trellis=2 / 8x8dct=1 / cqm=0 / deadzone=21,11 / fast_pskip=1 / chroma_qp_offset=-2 / threads=6 / lookahead_threads=1 / sliced_threads=0 / nr=0 / decimate=1 / interlaced=0 / bluray_compat=0 / stitchable=1 / constrained_intra=0 / bframes=16 / b_pyramid=2 / b_adapt=2 / b_bias=0 / direct=3 / weightb=1 / open_gop=0 / weightp=2 / keyint=240 / keyint_min=121 / scenecut=0 / intra_refresh=0 / rc_lookahead=240 / rc=crf / mbtree=1 / crf=16.0 / qcomp=0.50 / qpmin=6 / qpmax=51 / qpstep=4 / vbv_maxrate=20000 / vbv_bufsize=25000 / crf_max=0.0 / nal_hrd=vbr / filler=0 / ip_ratio=1.40 / aq=1:0.80
Default                                  : Yes
Forced                                   : No

Audio #1
ID                                       : 2
Format                                   : E-AC-3
Format/Info                              : Enhanced AC-3
Commercial name                          : Dolby Digital Plus
Codec ID                                 : A_EAC3
Duration                                 : 19 min 33 s
Bit rate mode                            : Constant
Bit rate                                 : 640 kb/s
Channel(s)                               : 6 channels
Channel layout                           : L R C LFE Ls Rs
Sampling rate                            : 48.0 kHz
Frame rate                               : 31.250 FPS (1536 SPF)
Compression mode                         : Lossy
Stream size                              : 89.5 MiB (2%)
Language                                 : Japanese
Service kind                             : Complete Main
Default                                  : Yes
Forced                                   : No

Audio #2
ID                                       : 3
Format                                   : E-AC-3
Format/Info                              : Enhanced AC-3
Commercial name                          : Dolby Digital Plus
Codec ID                                 : A_EAC3
Duration                                 : 19 min 33 s
Bit rate mode                            : Constant
Bit rate                                 : 640 kb/s
Channel(s)                               : 6 channels
Channel layout                           : L R C LFE Ls Rs
Sampling rate                            : 48.0 kHz
Frame rate                               : 31.250 FPS (1536 SPF)
Compression mode                         : Lossy
Stream size                              : 89.5 MiB (2%)
Language                                 : English
Service kind                             : Complete Main
Default                                  : No
Forced                                   : No

Audio #3
ID                                       : 4
Format                                   : E-AC-3
Format/Info                              : Enhanced AC-3
Commercial name                          : Dolby Digital Plus
Codec ID                                 : A_EAC3
Duration                                 : 19 min 33 s
Bit rate mode                            : Constant
Bit rate                                 : 640 kb/s
Channel(s)                               : 6 channels
Channel layout                           : L R C LFE Ls Rs
Sampling rate                            : 48.0 kHz
Frame rate                               : 31.250 FPS (1536 SPF)
Compression mode                         : Lossy
Stream size                              : 89.5 MiB (2%)
Language                                 : Arabic
Service kind                             : Complete Main
Default                                  : No
Forced                                   : No

Audio #4
ID                                       : 5
Format                                   : E-AC-3
Format/Info                              : Enhanced AC-3
Commercial name                          : Dolby Digital Plus
Codec ID                                 : A_EAC3
Duration                                 : 19 min 33 s
Bit rate mode                            : Constant
Bit rate                                 : 640 kb/s
Channel(s)                               : 6 channels
Channel layout                           : L R C LFE Ls Rs
Sampling rate                            : 48.0 kHz
Frame rate                               : 31.250 FPS (1536 SPF)
Compression mode                         : Lossy
Stream size                              : 89.5 MiB (2%)
Title                                    : Mandarin, Taiwan
Language                                 : Mandarin (TW)
Service kind                             : Complete Main
Default                                  : No
Forced                                   : No

Audio #5
ID                                       : 6
Format                                   : E-AC-3
Format/Info                              : Enhanced AC-3
Commercial name                          : Dolby Digital Plus
Codec ID                                 : A_EAC3
Duration                                 : 19 min 33 s
Bit rate mode                            : Constant
Bit rate                                 : 640 kb/s
Channel(s)                               : 6 channels
Channel layout                           : L R C LFE Ls Rs
Sampling rate                            : 48.0 kHz
Frame rate                               : 31.250 FPS (1536 SPF)
Compression mode                         : Lossy
Stream size                              : 89.5 MiB (2%)
Language                                 : Czech
Service kind                             : Complete Main
Default                                  : No
Forced                                   : No

Audio #6
ID                                       : 7
Format                                   : E-AC-3
Format/Info                              : Enhanced AC-3
Commercial name                          : Dolby Digital Plus
Codec ID                                 : A_EAC3
Duration                                 : 19 min 33 s
Bit rate mode                            : Constant
Bit rate                                 : 640 kb/s
Channel(s)                               : 6 channels
Channel layout                           : L R C LFE Ls Rs
Sampling rate                            : 48.0 kHz
Frame rate                               : 31.250 FPS (1536 SPF)
Compression mode                         : Lossy
Stream size                              : 89.5 MiB (2%)
Language                                 : Danish
Service kind                             : Complete Main
Default                                  : No
Forced                                   : No

Audio #7
ID                                       : 8
Format                                   : E-AC-3
Format/Info                              : Enhanced AC-3
Commercial name                          : Dolby Digital Plus
Codec ID                                 : A_EAC3
Duration                                 : 19 min 33 s
Bit rate mode                            : Constant
Bit rate                                 : 640 kb/s
Channel(s)                               : 6 channels
Channel layout                           : L R C LFE Ls Rs
Sampling rate                            : 48.0 kHz
Frame rate                               : 31.250 FPS (1536 SPF)
Compression mode                         : Lossy
Stream size                              : 89.5 MiB (2%)
Language                                 : German
Service kind                             : Complete Main
Default                                  : No
Forced                                   : No

Audio #8
ID                                       : 9
Format                                   : E-AC-3
Format/Info                              : Enhanced AC-3
Commercial name                          : Dolby Digital Plus
Codec ID                                 : A_EAC3
Duration                                 : 19 min 33 s
Bit rate mode                            : Constant
Bit rate                                 : 640 kb/s
Channel(s)                               : 6 channels
Channel layout                           : L R C LFE Ls Rs
Sampling rate                            : 48.0 kHz
Frame rate                               : 31.250 FPS (1536 SPF)
Compression mode                         : Lossy
Stream size                              : 89.5 MiB (2%)
Language                                 : Greek
Service kind                             : Complete Main
Default                                  : No
Forced                                   : No

Audio #9
ID                                       : 10
Format                                   : E-AC-3
Format/Info                              : Enhanced AC-3
Commercial name                          : Dolby Digital Plus
Codec ID                                 : A_EAC3
Duration                                 : 19 min 33 s
Bit rate mode                            : Constant
Bit rate                                 : 640 kb/s
Channel(s)                               : 6 channels
Channel layout                           : L R C LFE Ls Rs
Sampling rate                            : 48.0 kHz
Frame rate                               : 31.250 FPS (1536 SPF)
Compression mode                         : Lossy
Stream size                              : 89.5 MiB (2%)
Title                                    : Latin American
Language                                 : Spanish (Latin America)
Service kind                             : Complete Main
Default                                  : No
Forced                                   : No

Audio #10
ID                                       : 11
Format                                   : E-AC-3
Format/Info                              : Enhanced AC-3
Commercial name                          : Dolby Digital Plus
Codec ID                                 : A_EAC3
Duration                                 : 19 min 33 s
Bit rate mode                            : Constant
Bit rate                                 : 640 kb/s
Channel(s)                               : 6 channels
Channel layout                           : L R C LFE Ls Rs
Sampling rate                            : 48.0 kHz
Frame rate                               : 31.250 FPS (1536 SPF)
Compression mode                         : Lossy
Stream size                              : 89.5 MiB (2%)
Title                                    : European
Language                                 : Spanish (ES)
Service kind                             : Complete Main
Default                                  : No
Forced                                   : No

Audio #11
ID                                       : 12
Format                                   : E-AC-3
Format/Info                              : Enhanced AC-3
Commercial name                          : Dolby Digital Plus
Codec ID                                 : A_EAC3
Duration                                 : 19 min 33 s
Bit rate mode                            : Constant
Bit rate                                 : 640 kb/s
Channel(s)                               : 6 channels
Channel layout                           : L R C LFE Ls Rs
Sampling rate                            : 48.0 kHz
Frame rate                               : 31.250 FPS (1536 SPF)
Compression mode                         : Lossy
Stream size                              : 89.5 MiB (2%)
Language                                 : Finnish
Service kind                             : Complete Main
Default                                  : No
Forced                                   : No

Audio #12
ID                                       : 13
Format                                   : E-AC-3
Format/Info                              : Enhanced AC-3
Commercial name                          : Dolby Digital Plus
Codec ID                                 : A_EAC3
Duration                                 : 19 min 33 s
Bit rate mode                            : Constant
Bit rate                                 : 640 kb/s
Channel(s)                               : 6 channels
Channel layout                           : L R C LFE Ls Rs
Sampling rate                            : 48.0 kHz
Frame rate                               : 31.250 FPS (1536 SPF)
Compression mode                         : Lossy
Stream size                              : 89.5 MiB (2%)
Language                                 : French
Service kind                             : Complete Main
Default                                  : No
Forced                                   : No

Audio #13
ID                                       : 14
Format                                   : E-AC-3
Format/Info                              : Enhanced AC-3
Commercial name                          : Dolby Digital Plus
Codec ID                                 : A_EAC3
Duration                                 : 19 min 33 s
Bit rate mode                            : Constant
Bit rate                                 : 640 kb/s
Channel(s)                               : 6 channels
Channel layout                           : L R C LFE Ls Rs
Sampling rate                            : 48.0 kHz
Frame rate                               : 31.250 FPS (1536 SPF)
Compression mode                         : Lossy
Stream size                              : 89.5 MiB (2%)
Language                                 : Hebrew
Service kind                             : Complete Main
Default                                  : No
Forced                                   : No

Audio #14
ID                                       : 15
Format                                   : E-AC-3
Format/Info                              : Enhanced AC-3
Commercial name                          : Dolby Digital Plus
Codec ID                                 : A_EAC3
Duration                                 : 19 min 33 s
Bit rate mode                            : Constant
Bit rate                                 : 640 kb/s
Channel(s)                               : 6 channels
Channel layout                           : L R C LFE Ls Rs
Sampling rate                            : 48.0 kHz
Frame rate                               : 31.250 FPS (1536 SPF)
Compression mode                         : Lossy
Stream size                              : 89.5 MiB (2%)
Language                                 : Hindi
Service kind                             : Complete Main
Default                                  : No
Forced                                   : No

Audio #15
ID                                       : 16
Format                                   : E-AC-3
Format/Info                              : Enhanced AC-3
Commercial name                          : Dolby Digital Plus
Codec ID                                 : A_EAC3
Duration                                 : 19 min 33 s
Bit rate mode                            : Constant
Bit rate                                 : 640 kb/s
Channel(s)                               : 6 channels
Channel layout                           : L R C LFE Ls Rs
Sampling rate                            : 48.0 kHz
Frame rate                               : 31.250 FPS (1536 SPF)
Compression mode                         : Lossy
Stream size                              : 89.5 MiB (2%)
Language                                 : Croatian
Service kind                             : Complete Main
Default                                  : No
Forced                                   : No

Audio #16
ID                                       : 17
Format                                   : E-AC-3
Format/Info                              : Enhanced AC-3
Commercial name                          : Dolby Digital Plus
Codec ID                                 : A_EAC3
Duration                                 : 19 min 33 s
Bit rate mode                            : Constant
Bit rate                                 : 640 kb/s
Channel(s)                               : 6 channels
Channel layout                           : L R C LFE Ls Rs
Sampling rate                            : 48.0 kHz
Frame rate                               : 31.250 FPS (1536 SPF)
Compression mode                         : Lossy
Stream size                              : 89.5 MiB (2%)
Language                                 : Hungarian
Service kind                             : Complete Main
Default                                  : No
Forced                                   : No

Audio #17
ID                                       : 18
Format                                   : E-AC-3
Format/Info                              : Enhanced AC-3
Commercial name                          : Dolby Digital Plus
Codec ID                                 : A_EAC3
Duration                                 : 19 min 33 s
Bit rate mode                            : Constant
Bit rate                                 : 640 kb/s
Channel(s)                               : 6 channels
Channel layout                           : L R C LFE Ls Rs
Sampling rate                            : 48.0 kHz
Frame rate                               : 31.250 FPS (1536 SPF)
Compression mode                         : Lossy
Stream size                              : 89.5 MiB (2%)
Language                                 : Indonesian
Service kind                             : Complete Main
Default                                  : No
Forced                                   : No

Audio #18
ID                                       : 19
Format                                   : E-AC-3
Format/Info                              : Enhanced AC-3
Commercial name                          : Dolby Digital Plus
Codec ID                                 : A_EAC3
Duration                                 : 19 min 33 s
Bit rate mode                            : Constant
Bit rate                                 : 640 kb/s
Channel(s)                               : 6 channels
Channel layout                           : L R C LFE Ls Rs
Sampling rate                            : 48.0 kHz
Frame rate                               : 31.250 FPS (1536 SPF)
Compression mode                         : Lossy
Stream size                              : 89.5 MiB (2%)
Language                                 : Italian
Service kind                             : Complete Main
Default                                  : No
Forced                                   : No

Audio #19
ID                                       : 20
Format                                   : E-AC-3
Format/Info                              : Enhanced AC-3
Commercial name                          : Dolby Digital Plus
Codec ID                                 : A_EAC3
Duration                                 : 19 min 33 s
Bit rate mode                            : Constant
Bit rate                                 : 640 kb/s
Channel(s)                               : 6 channels
Channel layout                           : L R C LFE Ls Rs
Sampling rate                            : 48.0 kHz
Frame rate                               : 31.250 FPS (1536 SPF)
Compression mode                         : Lossy
Stream size                              : 89.5 MiB (2%)
Language                                 : Korean
Service kind                             : Complete Main
Default                                  : No
Forced                                   : No

Audio #20
ID                                       : 21
Format                                   : E-AC-3
Format/Info                              : Enhanced AC-3
Commercial name                          : Dolby Digital Plus
Codec ID                                 : A_EAC3
Duration                                 : 19 min 33 s
Bit rate mode                            : Constant
Bit rate                                 : 640 kb/s
Channel(s)                               : 6 channels
Channel layout                           : L R C LFE Ls Rs
Sampling rate                            : 48.0 kHz
Frame rate                               : 31.250 FPS (1536 SPF)
Compression mode                         : Lossy
Stream size                              : 89.5 MiB (2%)
Language                                 : Malay
Service kind                             : Complete Main
Default                                  : No
Forced                                   : No

Audio #21
ID                                       : 22
Format                                   : E-AC-3
Format/Info                              : Enhanced AC-3
Commercial name                          : Dolby Digital Plus
Codec ID                                 : A_EAC3
Duration                                 : 19 min 33 s
Bit rate mode                            : Constant
Bit rate                                 : 640 kb/s
Channel(s)                               : 6 channels
Channel layout                           : L R C LFE Ls Rs
Sampling rate                            : 48.0 kHz
Frame rate                               : 31.250 FPS (1536 SPF)
Compression mode                         : Lossy
Stream size                              : 89.5 MiB (2%)
Language                                 : Norwegian Bokmal
Service kind                             : Complete Main
Default                                  : No
Forced                                   : No

Audio #22
ID                                       : 23
Format                                   : E-AC-3
Format/Info                              : Enhanced AC-3
Commercial name                          : Dolby Digital Plus
Codec ID                                 : A_EAC3
Duration                                 : 19 min 33 s
Bit rate mode                            : Constant
Bit rate                                 : 640 kb/s
Channel(s)                               : 6 channels
Channel layout                           : L R C LFE Ls Rs
Sampling rate                            : 48.0 kHz
Frame rate                               : 31.250 FPS (1536 SPF)
Compression mode                         : Lossy
Stream size                              : 89.5 MiB (2%)
Language                                 : Dutch
Service kind                             : Complete Main
Default                                  : No
Forced                                   : No

Audio #23
ID                                       : 24
Format                                   : E-AC-3
Format/Info                              : Enhanced AC-3
Commercial name                          : Dolby Digital Plus
Codec ID                                 : A_EAC3
Duration                                 : 19 min 33 s
Bit rate mode                            : Constant
Bit rate                                 : 640 kb/s
Channel(s)                               : 6 channels
Channel layout                           : L R C LFE Ls Rs
Sampling rate                            : 48.0 kHz
Frame rate                               : 31.250 FPS (1536 SPF)
Compression mode                         : Lossy
Stream size                              : 89.5 MiB (2%)
Language                                 : Polish
Service kind                             : Complete Main
Default                                  : No
Forced                                   : No

Audio #24
ID                                       : 25
Format                                   : E-AC-3
Format/Info                              : Enhanced AC-3
Commercial name                          : Dolby Digital Plus
Codec ID                                 : A_EAC3
Duration                                 : 19 min 33 s
Bit rate mode                            : Constant
Bit rate                                 : 640 kb/s
Channel(s)                               : 6 channels
Channel layout                           : L R C LFE Ls Rs
Sampling rate                            : 48.0 kHz
Frame rate                               : 31.250 FPS (1536 SPF)
Compression mode                         : Lossy
Stream size                              : 89.5 MiB (2%)
Title                                    : Brazilian
Language                                 : Portuguese (BR)
Service kind                             : Complete Main
Default                                  : No
Forced                                   : No

Audio #25
ID                                       : 26
Format                                   : E-AC-3
Format/Info                              : Enhanced AC-3
Commercial name                          : Dolby Digital Plus
Codec ID                                 : A_EAC3
Duration                                 : 19 min 33 s
Bit rate mode                            : Constant
Bit rate                                 : 640 kb/s
Channel(s)                               : 6 channels
Channel layout                           : L R C LFE Ls Rs
Sampling rate                            : 48.0 kHz
Frame rate                               : 31.250 FPS (1536 SPF)
Compression mode                         : Lossy
Stream size                              : 89.5 MiB (2%)
Title                                    : European
Language                                 : Portuguese (PT)
Service kind                             : Complete Main
Default                                  : No
Forced                                   : No

Audio #26
ID                                       : 27
Format                                   : E-AC-3
Format/Info                              : Enhanced AC-3
Commercial name                          : Dolby Digital Plus
Codec ID                                 : A_EAC3
Duration                                 : 19 min 33 s
Bit rate mode                            : Constant
Bit rate                                 : 640 kb/s
Channel(s)                               : 6 channels
Channel layout                           : L R C LFE Ls Rs
Sampling rate                            : 48.0 kHz
Frame rate                               : 31.250 FPS (1536 SPF)
Compression mode                         : Lossy
Stream size                              : 89.5 MiB (2%)
Language                                 : Romanian
Service kind                             : Complete Main
Default                                  : No
Forced                                   : No

Audio #27
ID                                       : 28
Format                                   : E-AC-3
Format/Info                              : Enhanced AC-3
Commercial name                          : Dolby Digital Plus
Codec ID                                 : A_EAC3
Duration                                 : 19 min 33 s
Bit rate mode                            : Constant
Bit rate                                 : 640 kb/s
Channel(s)                               : 6 channels
Channel layout                           : L R C LFE Ls Rs
Sampling rate                            : 48.0 kHz
Frame rate                               : 31.250 FPS (1536 SPF)
Compression mode                         : Lossy
Stream size                              : 89.5 MiB (2%)
Language                                 : Swedish
Service kind                             : Complete Main
Default                                  : No
Forced                                   : No

Audio #28
ID                                       : 29
Format                                   : E-AC-3
Format/Info                              : Enhanced AC-3
Commercial name                          : Dolby Digital Plus
Codec ID                                 : A_EAC3
Duration                                 : 19 min 33 s
Bit rate mode                            : Constant
Bit rate                                 : 640 kb/s
Channel(s)                               : 6 channels
Channel layout                           : L R C LFE Ls Rs
Sampling rate                            : 48.0 kHz
Frame rate                               : 31.250 FPS (1536 SPF)
Compression mode                         : Lossy
Stream size                              : 89.5 MiB (2%)
Language                                 : Tamil
Service kind                             : Complete Main
Default                                  : No
Forced                                   : No

Audio #29
ID                                       : 30
Format                                   : E-AC-3
Format/Info                              : Enhanced AC-3
Commercial name                          : Dolby Digital Plus
Codec ID                                 : A_EAC3
Duration                                 : 19 min 33 s
Bit rate mode                            : Constant
Bit rate                                 : 640 kb/s
Channel(s)                               : 6 channels
Channel layout                           : L R C LFE Ls Rs
Sampling rate                            : 48.0 kHz
Frame rate                               : 31.250 FPS (1536 SPF)
Compression mode                         : Lossy
Stream size                              : 89.5 MiB (2%)
Language                                 : Telugu
Service kind                             : Complete Main
Default                                  : No
Forced                                   : No

Audio #30
ID                                       : 31
Format                                   : E-AC-3
Format/Info                              : Enhanced AC-3
Commercial name                          : Dolby Digital Plus
Codec ID                                 : A_EAC3
Duration                                 : 19 min 33 s
Bit rate mode                            : Constant
Bit rate                                 : 640 kb/s
Channel(s)                               : 6 channels
Channel layout                           : L R C LFE Ls Rs
Sampling rate                            : 48.0 kHz
Frame rate                               : 31.250 FPS (1536 SPF)
Compression mode                         : Lossy
Stream size                              : 89.5 MiB (2%)
Language                                 : Thai
Service kind                             : Complete Main
Default                                  : No
Forced                                   : No

Audio #31
ID                                       : 32
Format                                   : E-AC-3
Format/Info                              : Enhanced AC-3
Commercial name                          : Dolby Digital Plus
Codec ID                                 : A_EAC3
Duration                                 : 19 min 33 s
Bit rate mode                            : Constant
Bit rate                                 : 640 kb/s
Channel(s)                               : 6 channels
Channel layout                           : L R C LFE Ls Rs
Sampling rate                            : 48.0 kHz
Frame rate                               : 31.250 FPS (1536 SPF)
Compression mode                         : Lossy
Stream size                              : 89.5 MiB (2%)
Language                                 : Turkish
Service kind                             : Complete Main
Default                                  : No
Forced                                   : No

Audio #32
ID                                       : 33
Format                                   : E-AC-3
Format/Info                              : Enhanced AC-3
Commercial name                          : Dolby Digital Plus
Codec ID                                 : A_EAC3
Duration                                 : 19 min 33 s
Bit rate mode                            : Constant
Bit rate                                 : 640 kb/s
Channel(s)                               : 6 channels
Channel layout                           : L R C LFE Ls Rs
Sampling rate                            : 48.0 kHz
Frame rate                               : 31.250 FPS (1536 SPF)
Compression mode                         : Lossy
Stream size                              : 89.5 MiB (2%)
Language                                 : Ukrainian
Service kind                             : Complete Main
Default                                  : No
Forced                                   : No

Audio #33
ID                                       : 34
Format                                   : E-AC-3
Format/Info                              : Enhanced AC-3
Commercial name                          : Dolby Digital Plus
Codec ID                                 : A_EAC3
Duration                                 : 19 min 33 s
Bit rate mode                            : Constant
Bit rate                                 : 640 kb/s
Channel(s)                               : 6 channels
Channel layout                           : L R C LFE Ls Rs
Sampling rate                            : 48.0 kHz
Frame rate                               : 31.250 FPS (1536 SPF)
Compression mode                         : Lossy
Stream size                              : 89.5 MiB (2%)
Language                                 : Vietnamese
Service kind                             : Complete Main
Default                                  : No
Forced                                   : No

Text #1
ID                                       : 35
Format                                   : UTF-8
Codec ID                                 : S_TEXT/UTF8
Codec ID/Info                            : UTF-8 Plain Text
Duration                                 : 14 min 9 s
Bit rate                                 : 61 b/s
Frame rate                               : 0.232 FPS
Count of elements                        : 197
Stream size                              : 6.37 KiB (0%)
Language                                 : English
Default                                  : Yes
Forced                                   : No

Text #2
ID                                       : 36
Format                                   : UTF-8
Codec ID                                 : S_TEXT/UTF8
Codec ID/Info                            : UTF-8 Plain Text
Duration                                 : 14 min 9 s
Bit rate                                 : 66 b/s
Frame rate                               : 0.265 FPS
Count of elements                        : 225
Stream size                              : 6.85 KiB (0%)
Language                                 : English
Default                                  : No
Forced                                   : No

Text #3
ID                                       : 37
Format                                   : UTF-8
Codec ID                                 : S_TEXT/UTF8
Codec ID/Info                            : UTF-8 Plain Text
Duration                                 : 16 min 4 s
Bit rate                                 : 74 b/s
Frame rate                               : 0.307 FPS
Count of elements                        : 296
Stream size                              : 8.83 KiB (0%)
Title                                    : SDH
Language                                 : English
Default                                  : No
Forced                                   : No

Text #4
ID                                       : 38
Format                                   : UTF-8
Codec ID                                 : S_TEXT/UTF8
Codec ID/Info                            : UTF-8 Plain Text
Duration                                 : 16 min 6 s
Bit rate                                 : 81 b/s
Frame rate                               : 0.283 FPS
Count of elements                        : 274
Stream size                              : 9.56 KiB (0%)
Title                                    : SDH
Language                                 : Japanese
Default                                  : No
Forced                                   : No

Text #5
ID                                       : 39
Format                                   : UTF-8
Codec ID                                 : S_TEXT/UTF8
Codec ID/Info                            : UTF-8 Plain Text
Duration                                 : 3 s 170 ms
Bit rate                                 : 27 b/s
Frame rate                               : 0.315 FPS
Count of elements                        : 1
Stream size                              : 11.0 Bytes (0%)
Title                                    : Forced
Language                                 : Arabic
Default                                  : No
Forced                                   : Yes

Text #6
ID                                       : 40
Format                                   : UTF-8
Codec ID                                 : S_TEXT/UTF8
Codec ID/Info                            : UTF-8 Plain Text
Duration                                 : 16 min 20 s
Bit rate                                 : 77 b/s
Frame rate                               : 0.204 FPS
Count of elements                        : 200
Stream size                              : 9.31 KiB (0%)
Language                                 : Arabic
Default                                  : No
Forced                                   : No

Text #7
ID                                       : 41
Format                                   : UTF-8
Codec ID                                 : S_TEXT/UTF8
Codec ID/Info                            : UTF-8 Plain Text
Duration                                 : 3 s 170 ms
Bit rate                                 : 55 b/s
Frame rate                               : 0.315 FPS
Count of elements                        : 1
Stream size                              : 22.0 Bytes (0%)
Title                                    : Forced
Language                                 : Czech
Default                                  : No
Forced                                   : Yes

Text #8
ID                                       : 42
Format                                   : UTF-8
Codec ID                                 : S_TEXT/UTF8
Codec ID/Info                            : UTF-8 Plain Text
Duration                                 : 16 min 20 s
Bit rate                                 : 48 b/s
Frame rate                               : 0.204 FPS
Count of elements                        : 200
Stream size                              : 5.85 KiB (0%)
Language                                 : Czech
Default                                  : No
Forced                                   : No

Text #9
ID                                       : 43
Format                                   : UTF-8
Codec ID                                 : S_TEXT/UTF8
Codec ID/Info                            : UTF-8 Plain Text
Duration                                 : 16 min 0 s
Bit rate                                 : 53 b/s
Frame rate                               : 0.206 FPS
Count of elements                        : 198
Stream size                              : 6.23 KiB (0%)
Language                                 : Danish
Default                                  : No
Forced                                   : No

Text #10
ID                                       : 44
Format                                   : UTF-8
Codec ID                                 : S_TEXT/UTF8
Codec ID/Info                            : UTF-8 Plain Text
Duration                                 : 16 min 20 s
Bit rate                                 : 56 b/s
Frame rate                               : 0.203 FPS
Count of elements                        : 199
Stream size                              : 6.74 KiB (0%)
Language                                 : German
Default                                  : No
Forced                                   : No

Text #11
ID                                       : 45
Format                                   : UTF-8
Codec ID                                 : S_TEXT/UTF8
Codec ID/Info                            : UTF-8 Plain Text
Duration                                 : 14 min 21 s
Bit rate                                 : 97 b/s
Frame rate                               : 0.332 FPS
Count of elements                        : 286
Stream size                              : 10.3 KiB (0%)
Title                                    : SDH
Language                                 : German
Default                                  : No
Forced                                   : No

Text #12
ID                                       : 46
Format                                   : UTF-8
Codec ID                                 : S_TEXT/UTF8
Codec ID/Info                            : UTF-8 Plain Text
Duration                                 : 3 s 167 ms
Bit rate                                 : 80 b/s
Frame rate                               : 0.316 FPS
Count of elements                        : 1
Stream size                              : 32.0 Bytes (0%)
Title                                    : Forced
Language                                 : Greek
Default                                  : No
Forced                                   : Yes

Text #13
ID                                       : 47
Format                                   : UTF-8
Codec ID                                 : S_TEXT/UTF8
Codec ID/Info                            : UTF-8 Plain Text
Duration                                 : 16 min 20 s
Bit rate                                 : 87 b/s
Frame rate                               : 0.203 FPS
Count of elements                        : 199
Stream size                              : 10.5 KiB (0%)
Language                                 : Greek
Default                                  : No
Forced                                   : No

Text #14
ID                                       : 48
Format                                   : UTF-8
Codec ID                                 : S_TEXT/UTF8
Codec ID/Info                            : UTF-8 Plain Text
Duration                                 : 16 min 20 s
Bit rate                                 : 54 b/s
Frame rate                               : 0.198 FPS
Count of elements                        : 194
Stream size                              : 6.46 KiB (0%)
Title                                    : Latin American
Language                                 : Spanish (Latin America)
Default                                  : No
Forced                                   : No

Text #15
ID                                       : 49
Format                                   : UTF-8
Codec ID                                 : S_TEXT/UTF8
Codec ID/Info                            : UTF-8 Plain Text
Duration                                 : 16 min 25 s
Bit rate                                 : 65 b/s
Frame rate                               : 0.247 FPS
Count of elements                        : 243
Stream size                              : 7.93 KiB (0%)
Title                                    : Latin American (SDH)
Language                                 : Spanish (Latin America)
Default                                  : No
Forced                                   : No

Text #16
ID                                       : 50
Format                                   : UTF-8
Codec ID                                 : S_TEXT/UTF8
Codec ID/Info                            : UTF-8 Plain Text
Duration                                 : 16 min 20 s
Bit rate                                 : 51 b/s
Frame rate                               : 0.203 FPS
Count of elements                        : 199
Stream size                              : 6.18 KiB (0%)
Title                                    : European
Language                                 : Spanish (ES)
Default                                  : No
Forced                                   : No

Text #17
ID                                       : 51
Format                                   : UTF-8
Codec ID                                 : S_TEXT/UTF8
Codec ID/Info                            : UTF-8 Plain Text
Duration                                 : 16 min 20 s
Bit rate                                 : 49 b/s
Frame rate                               : 0.204 FPS
Count of elements                        : 200
Stream size                              : 5.88 KiB (0%)
Language                                 : Finnish
Default                                  : No
Forced                                   : No

Text #18
ID                                       : 52
Format                                   : UTF-8
Codec ID                                 : S_TEXT/UTF8
Codec ID/Info                            : UTF-8 Plain Text
Duration                                 : 16 min 20 s
Bit rate                                 : 57 b/s
Frame rate                               : 0.208 FPS
Count of elements                        : 204
Stream size                              : 6.87 KiB (0%)
Language                                 : Filipino
Default                                  : No
Forced                                   : No

Text #19
ID                                       : 53
Format                                   : UTF-8
Codec ID                                 : S_TEXT/UTF8
Codec ID/Info                            : UTF-8 Plain Text
Duration                                 : 59 s 894 ms
Bit rate                                 : 6 b/s
Frame rate                               : 0.033 FPS
Count of elements                        : 2
Stream size                              : 45.0 Bytes (0%)
Title                                    : Forced
Language                                 : French
Default                                  : No
Forced                                   : Yes

Text #20
ID                                       : 54
Format                                   : UTF-8
Codec ID                                 : S_TEXT/UTF8
Codec ID/Info                            : UTF-8 Plain Text
Duration                                 : 16 min 20 s
Bit rate                                 : 54 b/s
Frame rate                               : 0.204 FPS
Count of elements                        : 200
Stream size                              : 6.52 KiB (0%)
Language                                 : French
Default                                  : No
Forced                                   : No

Text #21
ID                                       : 55
Format                                   : UTF-8
Codec ID                                 : S_TEXT/UTF8
Codec ID/Info                            : UTF-8 Plain Text
Duration                                 : 16 min 26 s
Bit rate                                 : 87 b/s
Frame rate                               : 0.320 FPS
Count of elements                        : 316
Stream size                              : 10.6 KiB (0%)
Title                                    : SDH
Language                                 : French
Default                                  : No
Forced                                   : No

Text #22
ID                                       : 56
Format                                   : UTF-8
Codec ID                                 : S_TEXT/UTF8
Codec ID/Info                            : UTF-8 Plain Text
Duration                                 : 4 min 55 s
Bit rate                                 : 1 b/s
Frame rate                               : 0.007 FPS
Count of elements                        : 2
Stream size                              : 70.0 Bytes (0%)
Title                                    : Forced
Language                                 : Hebrew
Default                                  : No
Forced                                   : Yes

Text #23
ID                                       : 57
Format                                   : UTF-8
Codec ID                                 : S_TEXT/UTF8
Codec ID/Info                            : UTF-8 Plain Text
Duration                                 : 16 min 20 s
Bit rate                                 : 70 b/s
Frame rate                               : 0.204 FPS
Count of elements                        : 200
Stream size                              : 8.44 KiB (0%)
Language                                 : Hebrew
Default                                  : No
Forced                                   : No

Text #24
ID                                       : 58
Format                                   : UTF-8
Codec ID                                 : S_TEXT/UTF8
Codec ID/Info                            : UTF-8 Plain Text
Duration                                 : 16 min 20 s
Bit rate                                 : 43 b/s
Frame rate                               : 0.202 FPS
Count of elements                        : 198
Stream size                              : 5.26 KiB (0%)
Language                                 : Croatian
Default                                  : No
Forced                                   : No

Text #25
ID                                       : 59
Format                                   : UTF-8
Codec ID                                 : S_TEXT/UTF8
Codec ID/Info                            : UTF-8 Plain Text
Duration                                 : 4 min 55 s
Bit rate                                 : 1 b/s
Frame rate                               : 0.007 FPS
Count of elements                        : 2
Stream size                              : 42.0 Bytes (0%)
Title                                    : Forced
Language                                 : Hungarian
Default                                  : No
Forced                                   : Yes

Text #26
ID                                       : 60
Format                                   : UTF-8
Codec ID                                 : S_TEXT/UTF8
Codec ID/Info                            : UTF-8 Plain Text
Duration                                 : 16 min 20 s
Bit rate                                 : 52 b/s
Frame rate                               : 0.202 FPS
Count of elements                        : 198
Stream size                              : 6.30 KiB (0%)
Language                                 : Hungarian
Default                                  : No
Forced                                   : No

Text #27
ID                                       : 61
Format                                   : UTF-8
Codec ID                                 : S_TEXT/UTF8
Codec ID/Info                            : UTF-8 Plain Text
Duration                                 : 16 min 20 s
Bit rate                                 : 50 b/s
Frame rate                               : 0.203 FPS
Count of elements                        : 199
Stream size                              : 6.09 KiB (0%)
Language                                 : Indonesian
Default                                  : No
Forced                                   : No

Text #28
ID                                       : 62
Format                                   : UTF-8
Codec ID                                 : S_TEXT/UTF8
Codec ID/Info                            : UTF-8 Plain Text
Duration                                 : 59 s 809 ms
Bit rate                                 : 5 b/s
Frame rate                               : 0.033 FPS
Count of elements                        : 2
Stream size                              : 38.0 Bytes (0%)
Title                                    : Forced
Language                                 : Italian
Default                                  : No
Forced                                   : Yes

Text #29
ID                                       : 63
Format                                   : UTF-8
Codec ID                                 : S_TEXT/UTF8
Codec ID/Info                            : UTF-8 Plain Text
Duration                                 : 16 min 20 s
Bit rate                                 : 47 b/s
Frame rate                               : 0.202 FPS
Count of elements                        : 198
Stream size                              : 5.68 KiB (0%)
Language                                 : Italian
Default                                  : No
Forced                                   : No

Text #30
ID                                       : 64
Format                                   : UTF-8
Codec ID                                 : S_TEXT/UTF8
Codec ID/Info                            : UTF-8 Plain Text
Duration                                 : 4 min 55 s
Bit rate                                 : 1 b/s
Frame rate                               : 0.007 FPS
Count of elements                        : 2
Stream size                              : 50.0 Bytes (0%)
Title                                    : Forced
Language                                 : Korean
Default                                  : No
Forced                                   : Yes

Text #31
ID                                       : 65
Format                                   : UTF-8
Codec ID                                 : S_TEXT/UTF8
Codec ID/Info                            : UTF-8 Plain Text
Duration                                 : 14 min 9 s
Bit rate                                 : 61 b/s
Frame rate                               : 0.235 FPS
Count of elements                        : 200
Stream size                              : 6.33 KiB (0%)
Language                                 : Korean
Default                                  : No
Forced                                   : No

Text #32
ID                                       : 66
Format                                   : UTF-8
Codec ID                                 : S_TEXT/UTF8
Codec ID/Info                            : UTF-8 Plain Text
Duration                                 : 4 min 55 s
Bit rate                                 : 0 b/s
Frame rate                               : 0.007 FPS
Count of elements                        : 2
Stream size                              : 34.0 Bytes (0%)
Title                                    : Forced
Language                                 : Malay
Default                                  : No
Forced                                   : Yes

Text #33
ID                                       : 67
Format                                   : UTF-8
Codec ID                                 : S_TEXT/UTF8
Codec ID/Info                            : UTF-8 Plain Text
Duration                                 : 16 min 20 s
Bit rate                                 : 52 b/s
Frame rate                               : 0.202 FPS
Count of elements                        : 198
Stream size                              : 6.34 KiB (0%)
Language                                 : Malay
Default                                  : No
Forced                                   : No

Text #34
ID                                       : 68
Format                                   : UTF-8
Codec ID                                 : S_TEXT/UTF8
Codec ID/Info                            : UTF-8 Plain Text
Duration                                 : 16 min 20 s
Bit rate                                 : 51 b/s
Frame rate                               : 0.204 FPS
Count of elements                        : 200
Stream size                              : 6.14 KiB (0%)
Language                                 : Norwegian Bokmal
Default                                  : No
Forced                                   : No

Text #35
ID                                       : 69
Format                                   : UTF-8
Codec ID                                 : S_TEXT/UTF8
Codec ID/Info                            : UTF-8 Plain Text
Duration                                 : 16 min 20 s
Bit rate                                 : 46 b/s
Frame rate                               : 0.204 FPS
Count of elements                        : 200
Stream size                              : 5.57 KiB (0%)
Language                                 : Dutch
Default                                  : No
Forced                                   : No

Text #36
ID                                       : 70
Format                                   : UTF-8
Codec ID                                 : S_TEXT/UTF8
Codec ID/Info                            : UTF-8 Plain Text
Duration                                 : 16 min 20 s
Bit rate                                 : 46 b/s
Frame rate                               : 0.204 FPS
Count of elements                        : 200
Stream size                              : 5.56 KiB (0%)
Language                                 : Polish
Default                                  : No
Forced                                   : No

Text #37
ID                                       : 71
Format                                   : UTF-8
Codec ID                                 : S_TEXT/UTF8
Codec ID/Info                            : UTF-8 Plain Text
Duration                                 : 16 min 20 s
Bit rate                                 : 46 b/s
Frame rate                               : 0.202 FPS
Count of elements                        : 198
Stream size                              : 5.60 KiB (0%)
Title                                    : Brazilian
Language                                 : Portuguese (BR)
Default                                  : No
Forced                                   : No

Text #38
ID                                       : 72
Format                                   : UTF-8
Codec ID                                 : S_TEXT/UTF8
Codec ID/Info                            : UTF-8 Plain Text
Duration                                 : 4 min 55 s
Bit rate                                 : 0 b/s
Frame rate                               : 0.007 FPS
Count of elements                        : 2
Stream size                              : 20.0 Bytes (0%)
Title                                    : European (Forced)
Language                                 : Portuguese (PT)
Default                                  : No
Forced                                   : Yes

Text #39
ID                                       : 73
Format                                   : UTF-8
Codec ID                                 : S_TEXT/UTF8
Codec ID/Info                            : UTF-8 Plain Text
Duration                                 : 16 min 20 s
Bit rate                                 : 53 b/s
Frame rate                               : 0.204 FPS
Count of elements                        : 200
Stream size                              : 6.37 KiB (0%)
Title                                    : European
Language                                 : Portuguese (PT)
Default                                  : No
Forced                                   : No

Text #40
ID                                       : 74
Format                                   : UTF-8
Codec ID                                 : S_TEXT/UTF8
Codec ID/Info                            : UTF-8 Plain Text
Duration                                 : 2 s 0 ms
Bit rate                                 : 60 b/s
Frame rate                               : 0.500 FPS
Count of elements                        : 1
Stream size                              : 15.0 Bytes (0%)
Title                                    : Forced
Language                                 : Romanian
Default                                  : No
Forced                                   : Yes

Text #41
ID                                       : 75
Format                                   : UTF-8
Codec ID                                 : S_TEXT/UTF8
Codec ID/Info                            : UTF-8 Plain Text
Duration                                 : 16 min 20 s
Bit rate                                 : 52 b/s
Frame rate                               : 0.202 FPS
Count of elements                        : 198
Stream size                              : 6.32 KiB (0%)
Language                                 : Romanian
Default                                  : No
Forced                                   : No

Text #42
ID                                       : 76
Format                                   : UTF-8
Codec ID                                 : S_TEXT/UTF8
Codec ID/Info                            : UTF-8 Plain Text
Duration                                 : 16 min 20 s
Bit rate                                 : 84 b/s
Frame rate                               : 0.204 FPS
Count of elements                        : 200
Stream size                              : 10.1 KiB (0%)
Language                                 : Russian
Default                                  : No
Forced                                   : No

Text #43
ID                                       : 77
Format                                   : UTF-8
Codec ID                                 : S_TEXT/UTF8
Codec ID/Info                            : UTF-8 Plain Text
Duration                                 : 16 min 20 s
Bit rate                                 : 51 b/s
Frame rate                               : 0.204 FPS
Count of elements                        : 200
Stream size                              : 6.11 KiB (0%)
Language                                 : Swedish
Default                                  : No
Forced                                   : No

Text #44
ID                                       : 78
Format                                   : UTF-8
Codec ID                                 : S_TEXT/UTF8
Codec ID/Info                            : UTF-8 Plain Text
Duration                                 : 4 min 55 s
Bit rate                                 : 3 b/s
Frame rate                               : 0.007 FPS
Count of elements                        : 2
Stream size                              : 128 Bytes (0%)
Title                                    : Forced
Language                                 : Tamil
Default                                  : No
Forced                                   : Yes

Text #45
ID                                       : 79
Format                                   : UTF-8
Codec ID                                 : S_TEXT/UTF8
Codec ID/Info                            : UTF-8 Plain Text
Duration                                 : 5 min 50 s
Bit rate                                 : 3 b/s
Frame rate                               : 0.009 FPS
Count of elements                        : 3
Stream size                              : 136 Bytes (0%)
Title                                    : Forced
Language                                 : Telugu
Default                                  : No
Forced                                   : Yes

Text #46
ID                                       : 80
Format                                   : UTF-8
Codec ID                                 : S_TEXT/UTF8
Codec ID/Info                            : UTF-8 Plain Text
Duration                                 : 2 s 958 ms
Bit rate                                 : 146 b/s
Frame rate                               : 0.338 FPS
Count of elements                        : 1
Stream size                              : 54.0 Bytes (0%)
Title                                    : Forced
Language                                 : Thai
Default                                  : No
Forced                                   : Yes

Text #47
ID                                       : 81
Format                                   : UTF-8
Codec ID                                 : S_TEXT/UTF8
Codec ID/Info                            : UTF-8 Plain Text
Duration                                 : 16 min 20 s
Bit rate                                 : 118 b/s
Frame rate                               : 0.203 FPS
Count of elements                        : 199
Stream size                              : 14.1 KiB (0%)
Language                                 : Thai
Default                                  : No
Forced                                   : No

Text #48
ID                                       : 82
Format                                   : UTF-8
Codec ID                                 : S_TEXT/UTF8
Codec ID/Info                            : UTF-8 Plain Text
Duration                                 : 16 min 20 s
Bit rate                                 : 53 b/s
Frame rate                               : 0.204 FPS
Count of elements                        : 200
Stream size                              : 6.40 KiB (0%)
Language                                 : Turkish
Default                                  : No
Forced                                   : No

Text #49
ID                                       : 83
Format                                   : UTF-8
Codec ID                                 : S_TEXT/UTF8
Codec ID/Info                            : UTF-8 Plain Text
Duration                                 : 16 min 20 s
Bit rate                                 : 86 b/s
Frame rate                               : 0.204 FPS
Count of elements                        : 200
Stream size                              : 10.3 KiB (0%)
Language                                 : Ukrainian
Default                                  : No
Forced                                   : No

Text #50
ID                                       : 84
Format                                   : UTF-8
Codec ID                                 : S_TEXT/UTF8
Codec ID/Info                            : UTF-8 Plain Text
Duration                                 : 16 min 20 s
Bit rate                                 : 65 b/s
Frame rate                               : 0.201 FPS
Count of elements                        : 197
Stream size                              : 7.84 KiB (0%)
Language                                 : Vietnamese
Default                                  : No
Forced                                   : No

Text #51
ID                                       : 85
Format                                   : UTF-8
Codec ID                                 : S_TEXT/UTF8
Codec ID/Info                            : UTF-8 Plain Text
Duration                                 : 14 min 9 s
Bit rate                                 : 54 b/s
Frame rate                               : 0.235 FPS
Count of elements                        : 200
Stream size                              : 5.63 KiB (0%)
Title                                    : Simplified
Language                                 : Chinese (Simplified)
Default                                  : No
Forced                                   : No

Text #52
ID                                       : 86
Format                                   : UTF-8
Codec ID                                 : S_TEXT/UTF8
Codec ID/Info                            : UTF-8 Plain Text
Duration                                 : 3 s 167 ms
Bit rate                                 : 68 b/s
Frame rate                               : 0.316 FPS
Count of elements                        : 1
Stream size                              : 27.0 Bytes (0%)
Title                                    : Traditional (Forced)
Language                                 : Chinese (Traditional)
Default                                  : No
Forced                                   : Yes

Text #53
ID                                       : 87
Format                                   : UTF-8
Codec ID                                 : S_TEXT/UTF8
Codec ID/Info                            : UTF-8 Plain Text
Duration                                 : 14 min 9 s
Bit rate                                 : 55 b/s
Frame rate                               : 0.235 FPS
Count of elements                        : 200
Stream size                              : 5.71 KiB (0%)
Title                                    : Traditional
Language                                 : Chinese (Traditional)
Default                                  : No
Forced                                   : No

Menu
00:00:00.000                             : en:Scene 1
00:14:29.450                             : en:Credits

Other Files in this Torrent
Pokemon.Concierge.S01E01.Im.Haru.the.New.Concierge.1080p.NF.WEB-DL.DDP5.1.H.264.MULTi-VARYG.mkv
beta
Anime DDL+NZB mirror
Current Time: 12/07/2024 14:43



About/FAQs

Discord