Pokemon.Concierge.S01E03.I.Hope.I.Can.Evolve.Too.1080p.NF.WEB-DL.DDP5.1.H.264.MULTi-VARYG.mkv


File Size2.831 GB (3,039,439,407 bytes)
DownloadClickNUpload: Part1, Part2
DailyUploads: Part1, Part2, Part3
DownloadGG: Part1, Part2, Part3
GoFile: Part1, Part2
KrakenFiles: Part1, Part2, Part3
MdiaLoad: Part1, Part2
MultiUp: Part1
  • BdUpload
  • DownAce
  • Fichier
  • FileCloud
  • Filerio
  • FilesCdn
  • IndiShare
  • Kbagi
  • Turbobit
  • UpToBox
  • Uppit
, Part2
  • BdUpload
  • DownAce
  • Fichier
  • FileCloud
  • Filerio
  • FilesCdn
  • IndiShare
  • Kbagi
  • Turbobit
  • UpToBox
  • Uppit
, Part3
  • BdUpload
  • DownAce
  • Fichier
  • FileCloud
  • Filerio
  • FilesCdn
  • IndiShare
  • Kbagi
  • Turbobit
  • UpToBox
  • Uppit
, Part4
  • BdUpload
  • DownAce
  • Fichier
  • FileCloud
  • Filerio
  • FilesCdn
  • IndiShare
  • Kbagi
  • Turbobit
  • UpToBox
  • Uppit
, Part5
  • BdUpload
  • DownAce
  • Fichier
  • FileCloud
  • Filerio
  • FilesCdn
  • IndiShare
  • Kbagi
  • Turbobit
  • UpToBox
  • Uppit
, Part6
  • BdUpload
  • DownAce
  • Fichier
  • FileCloud
  • Filerio
  • FilesCdn
  • IndiShare
  • Kbagi
  • Turbobit
  • UpToBox
  • Uppit

Uppit: Part1, Part2, Part3
HashesCRC32: 383A87F5, MD5: 1E72123A9715D725543B2BDE6047A221, SHA1: 74B81693608E9964E41C8E020DC82D3DF526C44E, SHA256: EE62F81381685B3B07B7851678FF883467458556467449C80B6FAABB8755DCD9, ED2K: 3824A606C5875BA99D48A97EC9A0E8C9
Screenshots
screenshotscreenshotscreenshotscreenshotscreenshot
SubtitlesAll Attachments | eng [SRT], eng [SRT], SDH [eng, SRT], SDH [jpn, SRT], ara [SRT], Forced [cze, SRT], cze [SRT], dan [SRT], ger [SRT], SDH [ger, SRT], Forced [gre, SRT], gre [SRT], Latin American [spa, SRT], Latin American (SDH) [spa, SRT], European [spa, SRT], fin [SRT], fil [SRT], Forced [fre, SRT], fre [SRT], SDH [fre, SRT], Forced [heb, SRT], heb [SRT], hrv [SRT], Forced [hun, SRT], hun [SRT], ind [SRT], Forced [ita, SRT], ita [SRT], Forced [kor, SRT], kor [SRT], Forced [may, SRT], may [SRT], nob [SRT], dut [SRT], pol [SRT], Brazilian [por, SRT], European (Forced) [por, SRT], European [por, SRT], Forced [rum, SRT], rum [SRT], rus [SRT], swe [SRT], Forced [tam, SRT], Forced [tel, SRT], Forced [tha, SRT], tha [SRT], tur [SRT], ukr [SRT], vie [SRT], Simplified [chi, SRT], Traditional (Forced) [chi, SRT], Traditional [chi, SRT]
Additional Info
General
Unique ID                                : 154195537335482073382594426904554959363 (0x7400FAF29DBB4F6D7355C15A07C6F203)
Complete name                            : Pokemon.Concierge.S01E03.I.Hope.I.Can.Evolve.Too.1080p.NF.WEB-DL.DDP5.1.H.264.MULTi-VARYG.mkv
Format                                   : Matroska
Format version                           : Version 4
File size                                : 2.83 GiB
Duration                                 : 14 min 50 s
Overall bit rate mode                    : Variable
Overall bit rate                         : 27.3 Mb/s
Frame rate                               : 24.000 FPS
Writing application                      : mkvmerge v81.0 ('Milliontown') 64-bit
Writing library                          : libebml v1.4.4 + libmatroska v1.7.1

Video
ID                                       : 1
Format                                   : AVC
Format/Info                              : Advanced Video Codec
Format profile                           : High@L4
Format settings                          : CABAC / 4 Ref Frames
Format settings, CABAC                   : Yes
Format settings, Reference frames        : 4 frames
Codec ID                                 : V_MPEG4/ISO/AVC
Duration                                 : 14 min 50 s
Bit rate mode                            : Variable
Bit rate                                 : 6 158 kb/s
Maximum bit rate                         : 20.0 Mb/s
Width                                    : 1 920 pixels
Height                                   : 1 080 pixels
Display aspect ratio                     : 16:9
Frame rate mode                          : Constant
Frame rate                               : 24.000 FPS
Color space                              : YUV
Chroma subsampling                       : 4:2:0
Bit depth                                : 8 bits
Scan type                                : Progressive
Bits/(Pixel*Frame)                       : 0.124
Stream size                              : 654 MiB (23%)
Writing library                          : x264 core 148 r2727 7d026e8
Encoding settings                        : cabac=1 / ref=4 / deblock=1:0:0 / analyse=0x3:0x111 / me=umh / subme=10 / psy=1 / psy_rd=1.00:0.00 / mixed_ref=1 / me_range=120 / chroma_me=1 / trellis=2 / 8x8dct=1 / cqm=0 / deadzone=21,11 / fast_pskip=1 / chroma_qp_offset=-2 / threads=6 / lookahead_threads=1 / sliced_threads=0 / nr=0 / decimate=1 / interlaced=0 / bluray_compat=0 / stitchable=1 / constrained_intra=0 / bframes=16 / b_pyramid=2 / b_adapt=2 / b_bias=0 / direct=3 / weightb=1 / open_gop=0 / weightp=2 / keyint=240 / keyint_min=121 / scenecut=0 / intra_refresh=0 / rc_lookahead=240 / rc=crf / mbtree=1 / crf=20.0 / qcomp=0.50 / qpmin=6 / qpmax=51 / qpstep=4 / vbv_maxrate=20000 / vbv_bufsize=25000 / crf_max=0.0 / nal_hrd=vbr / filler=0 / ip_ratio=1.40 / aq=1:0.80
Default                                  : Yes
Forced                                   : No

Audio #1
ID                                       : 2
Format                                   : E-AC-3
Format/Info                              : Enhanced AC-3
Commercial name                          : Dolby Digital Plus
Codec ID                                 : A_EAC3
Duration                                 : 14 min 50 s
Bit rate mode                            : Constant
Bit rate                                 : 640 kb/s
Channel(s)                               : 6 channels
Channel layout                           : L R C LFE Ls Rs
Sampling rate                            : 48.0 kHz
Frame rate                               : 31.250 FPS (1536 SPF)
Compression mode                         : Lossy
Stream size                              : 68.0 MiB (2%)
Language                                 : Japanese
Service kind                             : Complete Main
Default                                  : Yes
Forced                                   : No

Audio #2
ID                                       : 3
Format                                   : E-AC-3
Format/Info                              : Enhanced AC-3
Commercial name                          : Dolby Digital Plus
Codec ID                                 : A_EAC3
Duration                                 : 14 min 50 s
Bit rate mode                            : Constant
Bit rate                                 : 640 kb/s
Channel(s)                               : 6 channels
Channel layout                           : L R C LFE Ls Rs
Sampling rate                            : 48.0 kHz
Frame rate                               : 31.250 FPS (1536 SPF)
Compression mode                         : Lossy
Stream size                              : 68.0 MiB (2%)
Language                                 : English
Service kind                             : Complete Main
Default                                  : No
Forced                                   : No

Audio #3
ID                                       : 4
Format                                   : E-AC-3
Format/Info                              : Enhanced AC-3
Commercial name                          : Dolby Digital Plus
Codec ID                                 : A_EAC3
Duration                                 : 14 min 50 s
Bit rate mode                            : Constant
Bit rate                                 : 640 kb/s
Channel(s)                               : 6 channels
Channel layout                           : L R C LFE Ls Rs
Sampling rate                            : 48.0 kHz
Frame rate                               : 31.250 FPS (1536 SPF)
Compression mode                         : Lossy
Stream size                              : 68.0 MiB (2%)
Language                                 : Arabic
Service kind                             : Complete Main
Default                                  : No
Forced                                   : No

Audio #4
ID                                       : 5
Format                                   : E-AC-3
Format/Info                              : Enhanced AC-3
Commercial name                          : Dolby Digital Plus
Codec ID                                 : A_EAC3
Duration                                 : 14 min 50 s
Bit rate mode                            : Constant
Bit rate                                 : 640 kb/s
Channel(s)                               : 6 channels
Channel layout                           : L R C LFE Ls Rs
Sampling rate                            : 48.0 kHz
Frame rate                               : 31.250 FPS (1536 SPF)
Compression mode                         : Lossy
Stream size                              : 68.0 MiB (2%)
Title                                    : Mandarin, Taiwan
Language                                 : Mandarin (TW)
Service kind                             : Complete Main
Default                                  : No
Forced                                   : No

Audio #5
ID                                       : 6
Format                                   : E-AC-3
Format/Info                              : Enhanced AC-3
Commercial name                          : Dolby Digital Plus
Codec ID                                 : A_EAC3
Duration                                 : 14 min 50 s
Bit rate mode                            : Constant
Bit rate                                 : 640 kb/s
Channel(s)                               : 6 channels
Channel layout                           : L R C LFE Ls Rs
Sampling rate                            : 48.0 kHz
Frame rate                               : 31.250 FPS (1536 SPF)
Compression mode                         : Lossy
Stream size                              : 68.0 MiB (2%)
Language                                 : Czech
Service kind                             : Complete Main
Default                                  : No
Forced                                   : No

Audio #6
ID                                       : 7
Format                                   : E-AC-3
Format/Info                              : Enhanced AC-3
Commercial name                          : Dolby Digital Plus
Codec ID                                 : A_EAC3
Duration                                 : 14 min 50 s
Bit rate mode                            : Constant
Bit rate                                 : 640 kb/s
Channel(s)                               : 6 channels
Channel layout                           : L R C LFE Ls Rs
Sampling rate                            : 48.0 kHz
Frame rate                               : 31.250 FPS (1536 SPF)
Compression mode                         : Lossy
Stream size                              : 68.0 MiB (2%)
Language                                 : Danish
Service kind                             : Complete Main
Default                                  : No
Forced                                   : No

Audio #7
ID                                       : 8
Format                                   : E-AC-3
Format/Info                              : Enhanced AC-3
Commercial name                          : Dolby Digital Plus
Codec ID                                 : A_EAC3
Duration                                 : 14 min 50 s
Bit rate mode                            : Constant
Bit rate                                 : 640 kb/s
Channel(s)                               : 6 channels
Channel layout                           : L R C LFE Ls Rs
Sampling rate                            : 48.0 kHz
Frame rate                               : 31.250 FPS (1536 SPF)
Compression mode                         : Lossy
Stream size                              : 68.0 MiB (2%)
Language                                 : German
Service kind                             : Complete Main
Default                                  : No
Forced                                   : No

Audio #8
ID                                       : 9
Format                                   : E-AC-3
Format/Info                              : Enhanced AC-3
Commercial name                          : Dolby Digital Plus
Codec ID                                 : A_EAC3
Duration                                 : 14 min 50 s
Bit rate mode                            : Constant
Bit rate                                 : 640 kb/s
Channel(s)                               : 6 channels
Channel layout                           : L R C LFE Ls Rs
Sampling rate                            : 48.0 kHz
Frame rate                               : 31.250 FPS (1536 SPF)
Compression mode                         : Lossy
Stream size                              : 68.0 MiB (2%)
Language                                 : Greek
Service kind                             : Complete Main
Default                                  : No
Forced                                   : No

Audio #9
ID                                       : 10
Format                                   : E-AC-3
Format/Info                              : Enhanced AC-3
Commercial name                          : Dolby Digital Plus
Codec ID                                 : A_EAC3
Duration                                 : 14 min 50 s
Bit rate mode                            : Constant
Bit rate                                 : 640 kb/s
Channel(s)                               : 6 channels
Channel layout                           : L R C LFE Ls Rs
Sampling rate                            : 48.0 kHz
Frame rate                               : 31.250 FPS (1536 SPF)
Compression mode                         : Lossy
Stream size                              : 68.0 MiB (2%)
Title                                    : Latin American
Language                                 : Spanish (Latin America)
Service kind                             : Complete Main
Default                                  : No
Forced                                   : No

Audio #10
ID                                       : 11
Format                                   : E-AC-3
Format/Info                              : Enhanced AC-3
Commercial name                          : Dolby Digital Plus
Codec ID                                 : A_EAC3
Duration                                 : 14 min 50 s
Bit rate mode                            : Constant
Bit rate                                 : 640 kb/s
Channel(s)                               : 6 channels
Channel layout                           : L R C LFE Ls Rs
Sampling rate                            : 48.0 kHz
Frame rate                               : 31.250 FPS (1536 SPF)
Compression mode                         : Lossy
Stream size                              : 68.0 MiB (2%)
Title                                    : European
Language                                 : Spanish (ES)
Service kind                             : Complete Main
Default                                  : No
Forced                                   : No

Audio #11
ID                                       : 12
Format                                   : E-AC-3
Format/Info                              : Enhanced AC-3
Commercial name                          : Dolby Digital Plus
Codec ID                                 : A_EAC3
Duration                                 : 14 min 50 s
Bit rate mode                            : Constant
Bit rate                                 : 640 kb/s
Channel(s)                               : 6 channels
Channel layout                           : L R C LFE Ls Rs
Sampling rate                            : 48.0 kHz
Frame rate                               : 31.250 FPS (1536 SPF)
Compression mode                         : Lossy
Stream size                              : 68.0 MiB (2%)
Language                                 : Finnish
Service kind                             : Complete Main
Default                                  : No
Forced                                   : No

Audio #12
ID                                       : 13
Format                                   : E-AC-3
Format/Info                              : Enhanced AC-3
Commercial name                          : Dolby Digital Plus
Codec ID                                 : A_EAC3
Duration                                 : 14 min 50 s
Bit rate mode                            : Constant
Bit rate                                 : 640 kb/s
Channel(s)                               : 6 channels
Channel layout                           : L R C LFE Ls Rs
Sampling rate                            : 48.0 kHz
Frame rate                               : 31.250 FPS (1536 SPF)
Compression mode                         : Lossy
Stream size                              : 68.0 MiB (2%)
Language                                 : French
Service kind                             : Complete Main
Default                                  : No
Forced                                   : No

Audio #13
ID                                       : 14
Format                                   : E-AC-3
Format/Info                              : Enhanced AC-3
Commercial name                          : Dolby Digital Plus
Codec ID                                 : A_EAC3
Duration                                 : 14 min 50 s
Bit rate mode                            : Constant
Bit rate                                 : 640 kb/s
Channel(s)                               : 6 channels
Channel layout                           : L R C LFE Ls Rs
Sampling rate                            : 48.0 kHz
Frame rate                               : 31.250 FPS (1536 SPF)
Compression mode                         : Lossy
Stream size                              : 68.0 MiB (2%)
Language                                 : Hebrew
Service kind                             : Complete Main
Default                                  : No
Forced                                   : No

Audio #14
ID                                       : 15
Format                                   : E-AC-3
Format/Info                              : Enhanced AC-3
Commercial name                          : Dolby Digital Plus
Codec ID                                 : A_EAC3
Duration                                 : 14 min 50 s
Bit rate mode                            : Constant
Bit rate                                 : 640 kb/s
Channel(s)                               : 6 channels
Channel layout                           : L R C LFE Ls Rs
Sampling rate                            : 48.0 kHz
Frame rate                               : 31.250 FPS (1536 SPF)
Compression mode                         : Lossy
Stream size                              : 68.0 MiB (2%)
Language                                 : Hindi
Service kind                             : Complete Main
Default                                  : No
Forced                                   : No

Audio #15
ID                                       : 16
Format                                   : E-AC-3
Format/Info                              : Enhanced AC-3
Commercial name                          : Dolby Digital Plus
Codec ID                                 : A_EAC3
Duration                                 : 14 min 50 s
Bit rate mode                            : Constant
Bit rate                                 : 640 kb/s
Channel(s)                               : 6 channels
Channel layout                           : L R C LFE Ls Rs
Sampling rate                            : 48.0 kHz
Frame rate                               : 31.250 FPS (1536 SPF)
Compression mode                         : Lossy
Stream size                              : 68.0 MiB (2%)
Language                                 : Croatian
Service kind                             : Complete Main
Default                                  : No
Forced                                   : No

Audio #16
ID                                       : 17
Format                                   : E-AC-3
Format/Info                              : Enhanced AC-3
Commercial name                          : Dolby Digital Plus
Codec ID                                 : A_EAC3
Duration                                 : 14 min 50 s
Bit rate mode                            : Constant
Bit rate                                 : 640 kb/s
Channel(s)                               : 6 channels
Channel layout                           : L R C LFE Ls Rs
Sampling rate                            : 48.0 kHz
Frame rate                               : 31.250 FPS (1536 SPF)
Compression mode                         : Lossy
Stream size                              : 68.0 MiB (2%)
Language                                 : Hungarian
Service kind                             : Complete Main
Default                                  : No
Forced                                   : No

Audio #17
ID                                       : 18
Format                                   : E-AC-3
Format/Info                              : Enhanced AC-3
Commercial name                          : Dolby Digital Plus
Codec ID                                 : A_EAC3
Duration                                 : 14 min 50 s
Bit rate mode                            : Constant
Bit rate                                 : 640 kb/s
Channel(s)                               : 6 channels
Channel layout                           : L R C LFE Ls Rs
Sampling rate                            : 48.0 kHz
Frame rate                               : 31.250 FPS (1536 SPF)
Compression mode                         : Lossy
Stream size                              : 68.0 MiB (2%)
Language                                 : Indonesian
Service kind                             : Complete Main
Default                                  : No
Forced                                   : No

Audio #18
ID                                       : 19
Format                                   : E-AC-3
Format/Info                              : Enhanced AC-3
Commercial name                          : Dolby Digital Plus
Codec ID                                 : A_EAC3
Duration                                 : 14 min 50 s
Bit rate mode                            : Constant
Bit rate                                 : 640 kb/s
Channel(s)                               : 6 channels
Channel layout                           : L R C LFE Ls Rs
Sampling rate                            : 48.0 kHz
Frame rate                               : 31.250 FPS (1536 SPF)
Compression mode                         : Lossy
Stream size                              : 68.0 MiB (2%)
Language                                 : Italian
Service kind                             : Complete Main
Default                                  : No
Forced                                   : No

Audio #19
ID                                       : 20
Format                                   : E-AC-3
Format/Info                              : Enhanced AC-3
Commercial name                          : Dolby Digital Plus
Codec ID                                 : A_EAC3
Duration                                 : 14 min 50 s
Bit rate mode                            : Constant
Bit rate                                 : 640 kb/s
Channel(s)                               : 6 channels
Channel layout                           : L R C LFE Ls Rs
Sampling rate                            : 48.0 kHz
Frame rate                               : 31.250 FPS (1536 SPF)
Compression mode                         : Lossy
Stream size                              : 68.0 MiB (2%)
Language                                 : Korean
Service kind                             : Complete Main
Default                                  : No
Forced                                   : No

Audio #20
ID                                       : 21
Format                                   : E-AC-3
Format/Info                              : Enhanced AC-3
Commercial name                          : Dolby Digital Plus
Codec ID                                 : A_EAC3
Duration                                 : 14 min 50 s
Bit rate mode                            : Constant
Bit rate                                 : 640 kb/s
Channel(s)                               : 6 channels
Channel layout                           : L R C LFE Ls Rs
Sampling rate                            : 48.0 kHz
Frame rate                               : 31.250 FPS (1536 SPF)
Compression mode                         : Lossy
Stream size                              : 68.0 MiB (2%)
Language                                 : Malay
Service kind                             : Complete Main
Default                                  : No
Forced                                   : No

Audio #21
ID                                       : 22
Format                                   : E-AC-3
Format/Info                              : Enhanced AC-3
Commercial name                          : Dolby Digital Plus
Codec ID                                 : A_EAC3
Duration                                 : 14 min 50 s
Bit rate mode                            : Constant
Bit rate                                 : 640 kb/s
Channel(s)                               : 6 channels
Channel layout                           : L R C LFE Ls Rs
Sampling rate                            : 48.0 kHz
Frame rate                               : 31.250 FPS (1536 SPF)
Compression mode                         : Lossy
Stream size                              : 68.0 MiB (2%)
Language                                 : Norwegian Bokmal
Service kind                             : Complete Main
Default                                  : No
Forced                                   : No

Audio #22
ID                                       : 23
Format                                   : E-AC-3
Format/Info                              : Enhanced AC-3
Commercial name                          : Dolby Digital Plus
Codec ID                                 : A_EAC3
Duration                                 : 14 min 50 s
Bit rate mode                            : Constant
Bit rate                                 : 640 kb/s
Channel(s)                               : 6 channels
Channel layout                           : L R C LFE Ls Rs
Sampling rate                            : 48.0 kHz
Frame rate                               : 31.250 FPS (1536 SPF)
Compression mode                         : Lossy
Stream size                              : 68.0 MiB (2%)
Language                                 : Dutch
Service kind                             : Complete Main
Default                                  : No
Forced                                   : No

Audio #23
ID                                       : 24
Format                                   : E-AC-3
Format/Info                              : Enhanced AC-3
Commercial name                          : Dolby Digital Plus
Codec ID                                 : A_EAC3
Duration                                 : 14 min 50 s
Bit rate mode                            : Constant
Bit rate                                 : 640 kb/s
Channel(s)                               : 6 channels
Channel layout                           : L R C LFE Ls Rs
Sampling rate                            : 48.0 kHz
Frame rate                               : 31.250 FPS (1536 SPF)
Compression mode                         : Lossy
Stream size                              : 68.0 MiB (2%)
Language                                 : Polish
Service kind                             : Complete Main
Default                                  : No
Forced                                   : No

Audio #24
ID                                       : 25
Format                                   : E-AC-3
Format/Info                              : Enhanced AC-3
Commercial name                          : Dolby Digital Plus
Codec ID                                 : A_EAC3
Duration                                 : 14 min 50 s
Bit rate mode                            : Constant
Bit rate                                 : 640 kb/s
Channel(s)                               : 6 channels
Channel layout                           : L R C LFE Ls Rs
Sampling rate                            : 48.0 kHz
Frame rate                               : 31.250 FPS (1536 SPF)
Compression mode                         : Lossy
Stream size                              : 68.0 MiB (2%)
Title                                    : Brazilian
Language                                 : Portuguese (BR)
Service kind                             : Complete Main
Default                                  : No
Forced                                   : No

Audio #25
ID                                       : 26
Format                                   : E-AC-3
Format/Info                              : Enhanced AC-3
Commercial name                          : Dolby Digital Plus
Codec ID                                 : A_EAC3
Duration                                 : 14 min 50 s
Bit rate mode                            : Constant
Bit rate                                 : 640 kb/s
Channel(s)                               : 6 channels
Channel layout                           : L R C LFE Ls Rs
Sampling rate                            : 48.0 kHz
Frame rate                               : 31.250 FPS (1536 SPF)
Compression mode                         : Lossy
Stream size                              : 68.0 MiB (2%)
Title                                    : European
Language                                 : Portuguese (PT)
Service kind                             : Complete Main
Default                                  : No
Forced                                   : No

Audio #26
ID                                       : 27
Format                                   : E-AC-3
Format/Info                              : Enhanced AC-3
Commercial name                          : Dolby Digital Plus
Codec ID                                 : A_EAC3
Duration                                 : 14 min 50 s
Bit rate mode                            : Constant
Bit rate                                 : 640 kb/s
Channel(s)                               : 6 channels
Channel layout                           : L R C LFE Ls Rs
Sampling rate                            : 48.0 kHz
Frame rate                               : 31.250 FPS (1536 SPF)
Compression mode                         : Lossy
Stream size                              : 68.0 MiB (2%)
Language                                 : Romanian
Service kind                             : Complete Main
Default                                  : No
Forced                                   : No

Audio #27
ID                                       : 28
Format                                   : E-AC-3
Format/Info                              : Enhanced AC-3
Commercial name                          : Dolby Digital Plus
Codec ID                                 : A_EAC3
Duration                                 : 14 min 50 s
Bit rate mode                            : Constant
Bit rate                                 : 640 kb/s
Channel(s)                               : 6 channels
Channel layout                           : L R C LFE Ls Rs
Sampling rate                            : 48.0 kHz
Frame rate                               : 31.250 FPS (1536 SPF)
Compression mode                         : Lossy
Stream size                              : 68.0 MiB (2%)
Language                                 : Swedish
Service kind                             : Complete Main
Default                                  : No
Forced                                   : No

Audio #28
ID                                       : 29
Format                                   : E-AC-3
Format/Info                              : Enhanced AC-3
Commercial name                          : Dolby Digital Plus
Codec ID                                 : A_EAC3
Duration                                 : 14 min 50 s
Bit rate mode                            : Constant
Bit rate                                 : 640 kb/s
Channel(s)                               : 6 channels
Channel layout                           : L R C LFE Ls Rs
Sampling rate                            : 48.0 kHz
Frame rate                               : 31.250 FPS (1536 SPF)
Compression mode                         : Lossy
Stream size                              : 68.0 MiB (2%)
Language                                 : Tamil
Service kind                             : Complete Main
Default                                  : No
Forced                                   : No

Audio #29
ID                                       : 30
Format                                   : E-AC-3
Format/Info                              : Enhanced AC-3
Commercial name                          : Dolby Digital Plus
Codec ID                                 : A_EAC3
Duration                                 : 14 min 50 s
Bit rate mode                            : Constant
Bit rate                                 : 640 kb/s
Channel(s)                               : 6 channels
Channel layout                           : L R C LFE Ls Rs
Sampling rate                            : 48.0 kHz
Frame rate                               : 31.250 FPS (1536 SPF)
Compression mode                         : Lossy
Stream size                              : 68.0 MiB (2%)
Language                                 : Telugu
Service kind                             : Complete Main
Default                                  : No
Forced                                   : No

Audio #30
ID                                       : 31
Format                                   : E-AC-3
Format/Info                              : Enhanced AC-3
Commercial name                          : Dolby Digital Plus
Codec ID                                 : A_EAC3
Duration                                 : 14 min 50 s
Bit rate mode                            : Constant
Bit rate                                 : 640 kb/s
Channel(s)                               : 6 channels
Channel layout                           : L R C LFE Ls Rs
Sampling rate                            : 48.0 kHz
Frame rate                               : 31.250 FPS (1536 SPF)
Compression mode                         : Lossy
Stream size                              : 68.0 MiB (2%)
Language                                 : Thai
Service kind                             : Complete Main
Default                                  : No
Forced                                   : No

Audio #31
ID                                       : 32
Format                                   : E-AC-3
Format/Info                              : Enhanced AC-3
Commercial name                          : Dolby Digital Plus
Codec ID                                 : A_EAC3
Duration                                 : 14 min 50 s
Bit rate mode                            : Constant
Bit rate                                 : 640 kb/s
Channel(s)                               : 6 channels
Channel layout                           : L R C LFE Ls Rs
Sampling rate                            : 48.0 kHz
Frame rate                               : 31.250 FPS (1536 SPF)
Compression mode                         : Lossy
Stream size                              : 68.0 MiB (2%)
Language                                 : Turkish
Service kind                             : Complete Main
Default                                  : No
Forced                                   : No

Audio #32
ID                                       : 33
Format                                   : E-AC-3
Format/Info                              : Enhanced AC-3
Commercial name                          : Dolby Digital Plus
Codec ID                                 : A_EAC3
Duration                                 : 14 min 50 s
Bit rate mode                            : Constant
Bit rate                                 : 640 kb/s
Channel(s)                               : 6 channels
Channel layout                           : L R C LFE Ls Rs
Sampling rate                            : 48.0 kHz
Frame rate                               : 31.250 FPS (1536 SPF)
Compression mode                         : Lossy
Stream size                              : 68.0 MiB (2%)
Language                                 : Ukrainian
Service kind                             : Complete Main
Default                                  : No
Forced                                   : No

Audio #33
ID                                       : 34
Format                                   : E-AC-3
Format/Info                              : Enhanced AC-3
Commercial name                          : Dolby Digital Plus
Codec ID                                 : A_EAC3
Duration                                 : 14 min 50 s
Bit rate mode                            : Constant
Bit rate                                 : 640 kb/s
Channel(s)                               : 6 channels
Channel layout                           : L R C LFE Ls Rs
Sampling rate                            : 48.0 kHz
Frame rate                               : 31.250 FPS (1536 SPF)
Compression mode                         : Lossy
Stream size                              : 68.0 MiB (2%)
Language                                 : Vietnamese
Service kind                             : Complete Main
Default                                  : No
Forced                                   : No

Text #1
ID                                       : 35
Format                                   : UTF-8
Codec ID                                 : S_TEXT/UTF8
Codec ID/Info                            : UTF-8 Plain Text
Duration                                 : 9 min 29 s
Bit rate                                 : 52 b/s
Frame rate                               : 0.195 FPS
Count of elements                        : 111
Stream size                              : 3.67 KiB (0%)
Language                                 : English
Default                                  : Yes
Forced                                   : No

Text #2
ID                                       : 36
Format                                   : UTF-8
Codec ID                                 : S_TEXT/UTF8
Codec ID/Info                            : UTF-8 Plain Text
Duration                                 : 9 min 29 s
Bit rate                                 : 56 b/s
Frame rate                               : 0.223 FPS
Count of elements                        : 127
Stream size                              : 3.96 KiB (0%)
Language                                 : English
Default                                  : No
Forced                                   : No

Text #3
ID                                       : 37
Format                                   : UTF-8
Codec ID                                 : S_TEXT/UTF8
Codec ID/Info                            : UTF-8 Plain Text
Duration                                 : 11 min 46 s
Bit rate                                 : 71 b/s
Frame rate                               : 0.294 FPS
Count of elements                        : 208
Stream size                              : 6.14 KiB (0%)
Title                                    : SDH
Language                                 : English
Default                                  : No
Forced                                   : No

Text #4
ID                                       : 38
Format                                   : UTF-8
Codec ID                                 : S_TEXT/UTF8
Codec ID/Info                            : UTF-8 Plain Text
Duration                                 : 11 min 48 s
Bit rate                                 : 82 b/s
Frame rate                               : 0.295 FPS
Count of elements                        : 209
Stream size                              : 7.10 KiB (0%)
Title                                    : SDH
Language                                 : Japanese
Default                                  : No
Forced                                   : No

Text #5
ID                                       : 39
Format                                   : UTF-8
Codec ID                                 : S_TEXT/UTF8
Codec ID/Info                            : UTF-8 Plain Text
Duration                                 : 11 min 39 s
Bit rate                                 : 67 b/s
Frame rate                               : 0.163 FPS
Count of elements                        : 114
Stream size                              : 5.73 KiB (0%)
Language                                 : Arabic
Default                                  : No
Forced                                   : No

Text #6
ID                                       : 40
Format                                   : UTF-8
Codec ID                                 : S_TEXT/UTF8
Codec ID/Info                            : UTF-8 Plain Text
Duration                                 : 2 min 4 s
Bit rate                                 : 2 b/s
Frame rate                               : 0.016 FPS
Count of elements                        : 2
Stream size                              : 44.0 Bytes (0%)
Title                                    : Forced
Language                                 : Czech
Default                                  : No
Forced                                   : Yes

Text #7
ID                                       : 41
Format                                   : UTF-8
Codec ID                                 : S_TEXT/UTF8
Codec ID/Info                            : UTF-8 Plain Text
Duration                                 : 11 min 39 s
Bit rate                                 : 38 b/s
Frame rate                               : 0.163 FPS
Count of elements                        : 114
Stream size                              : 3.31 KiB (0%)
Language                                 : Czech
Default                                  : No
Forced                                   : No

Text #8
ID                                       : 42
Format                                   : UTF-8
Codec ID                                 : S_TEXT/UTF8
Codec ID/Info                            : UTF-8 Plain Text
Duration                                 : 11 min 23 s
Bit rate                                 : 42 b/s
Frame rate                               : 0.164 FPS
Count of elements                        : 112
Stream size                              : 3.56 KiB (0%)
Language                                 : Danish
Default                                  : No
Forced                                   : No

Text #9
ID                                       : 43
Format                                   : UTF-8
Codec ID                                 : S_TEXT/UTF8
Codec ID/Info                            : UTF-8 Plain Text
Duration                                 : 11 min 39 s
Bit rate                                 : 44 b/s
Frame rate                               : 0.163 FPS
Count of elements                        : 114
Stream size                              : 3.77 KiB (0%)
Language                                 : German
Default                                  : No
Forced                                   : No

Text #10
ID                                       : 44
Format                                   : UTF-8
Codec ID                                 : S_TEXT/UTF8
Codec ID/Info                            : UTF-8 Plain Text
Duration                                 : 10 min 2 s
Bit rate                                 : 84 b/s
Frame rate                               : 0.322 FPS
Count of elements                        : 194
Stream size                              : 6.23 KiB (0%)
Title                                    : SDH
Language                                 : German
Default                                  : No
Forced                                   : No

Text #11
ID                                       : 45
Format                                   : UTF-8
Codec ID                                 : S_TEXT/UTF8
Codec ID/Info                            : UTF-8 Plain Text
Duration                                 : 3 s 875 ms
Bit rate                                 : 66 b/s
Frame rate                               : 0.258 FPS
Count of elements                        : 1
Stream size                              : 32.0 Bytes (0%)
Title                                    : Forced
Language                                 : Greek
Default                                  : No
Forced                                   : Yes

Text #12
ID                                       : 46
Format                                   : UTF-8
Codec ID                                 : S_TEXT/UTF8
Codec ID/Info                            : UTF-8 Plain Text
Duration                                 : 11 min 39 s
Bit rate                                 : 71 b/s
Frame rate                               : 0.163 FPS
Count of elements                        : 114
Stream size                              : 6.06 KiB (0%)
Language                                 : Greek
Default                                  : No
Forced                                   : No

Text #13
ID                                       : 47
Format                                   : UTF-8
Codec ID                                 : S_TEXT/UTF8
Codec ID/Info                            : UTF-8 Plain Text
Duration                                 : 11 min 39 s
Bit rate                                 : 42 b/s
Frame rate                               : 0.162 FPS
Count of elements                        : 113
Stream size                              : 3.67 KiB (0%)
Title                                    : Latin American
Language                                 : Spanish (Latin America)
Default                                  : No
Forced                                   : No

Text #14
ID                                       : 48
Format                                   : UTF-8
Codec ID                                 : S_TEXT/UTF8
Codec ID/Info                            : UTF-8 Plain Text
Duration                                 : 12 min 6 s
Bit rate                                 : 57 b/s
Frame rate                               : 0.244 FPS
Count of elements                        : 177
Stream size                              : 5.06 KiB (0%)
Title                                    : Latin American (SDH)
Language                                 : Spanish (Latin America)
Default                                  : No
Forced                                   : No

Text #15
ID                                       : 49
Format                                   : UTF-8
Codec ID                                 : S_TEXT/UTF8
Codec ID/Info                            : UTF-8 Plain Text
Duration                                 : 11 min 39 s
Bit rate                                 : 40 b/s
Frame rate                               : 0.163 FPS
Count of elements                        : 114
Stream size                              : 3.47 KiB (0%)
Title                                    : European
Language                                 : Spanish (ES)
Default                                  : No
Forced                                   : No

Text #16
ID                                       : 50
Format                                   : UTF-8
Codec ID                                 : S_TEXT/UTF8
Codec ID/Info                            : UTF-8 Plain Text
Duration                                 : 11 min 39 s
Bit rate                                 : 41 b/s
Frame rate                               : 0.163 FPS
Count of elements                        : 114
Stream size                              : 3.52 KiB (0%)
Language                                 : Finnish
Default                                  : No
Forced                                   : No

Text #17
ID                                       : 51
Format                                   : UTF-8
Codec ID                                 : S_TEXT/UTF8
Codec ID/Info                            : UTF-8 Plain Text
Duration                                 : 11 min 39 s
Bit rate                                 : 43 b/s
Frame rate                               : 0.160 FPS
Count of elements                        : 112
Stream size                              : 3.72 KiB (0%)
Language                                 : Filipino
Default                                  : No
Forced                                   : No

Text #18
ID                                       : 52
Format                                   : UTF-8
Codec ID                                 : S_TEXT/UTF8
Codec ID/Info                            : UTF-8 Plain Text
Duration                                 : 1 min 25 s
Bit rate                                 : 4 b/s
Frame rate                               : 0.023 FPS
Count of elements                        : 2
Stream size                              : 45.0 Bytes (0%)
Title                                    : Forced
Language                                 : French
Default                                  : No
Forced                                   : Yes

Text #19
ID                                       : 53
Format                                   : UTF-8
Codec ID                                 : S_TEXT/UTF8
Codec ID/Info                            : UTF-8 Plain Text
Duration                                 : 11 min 39 s
Bit rate                                 : 43 b/s
Frame rate                               : 0.163 FPS
Count of elements                        : 114
Stream size                              : 3.71 KiB (0%)
Language                                 : French
Default                                  : No
Forced                                   : No

Text #20
ID                                       : 54
Format                                   : UTF-8
Codec ID                                 : S_TEXT/UTF8
Codec ID/Info                            : UTF-8 Plain Text
Duration                                 : 12 min 8 s
Bit rate                                 : 80 b/s
Frame rate                               : 0.321 FPS
Count of elements                        : 234
Stream size                              : 7.16 KiB (0%)
Title                                    : SDH
Language                                 : French
Default                                  : No
Forced                                   : No

Text #21
ID                                       : 55
Format                                   : UTF-8
Codec ID                                 : S_TEXT/UTF8
Codec ID/Info                            : UTF-8 Plain Text
Duration                                 : 2 s 166 ms
Bit rate                                 : 151 b/s
Frame rate                               : 0.462 FPS
Count of elements                        : 1
Stream size                              : 41.0 Bytes (0%)
Title                                    : Forced
Language                                 : Hebrew
Default                                  : No
Forced                                   : Yes

Text #22
ID                                       : 56
Format                                   : UTF-8
Codec ID                                 : S_TEXT/UTF8
Codec ID/Info                            : UTF-8 Plain Text
Duration                                 : 11 min 39 s
Bit rate                                 : 58 b/s
Frame rate                               : 0.163 FPS
Count of elements                        : 114
Stream size                              : 4.97 KiB (0%)
Language                                 : Hebrew
Default                                  : No
Forced                                   : No

Text #23
ID                                       : 57
Format                                   : UTF-8
Codec ID                                 : S_TEXT/UTF8
Codec ID/Info                            : UTF-8 Plain Text
Duration                                 : 11 min 39 s
Bit rate                                 : 34 b/s
Frame rate                               : 0.160 FPS
Count of elements                        : 112
Stream size                              : 2.96 KiB (0%)
Language                                 : Croatian
Default                                  : No
Forced                                   : No

Text #24
ID                                       : 58
Format                                   : UTF-8
Codec ID                                 : S_TEXT/UTF8
Codec ID/Info                            : UTF-8 Plain Text
Duration                                 : 2 min 4 s
Bit rate                                 : 2 b/s
Frame rate                               : 0.016 FPS
Count of elements                        : 2
Stream size                              : 42.0 Bytes (0%)
Title                                    : Forced
Language                                 : Hungarian
Default                                  : No
Forced                                   : Yes

Text #25
ID                                       : 59
Format                                   : UTF-8
Codec ID                                 : S_TEXT/UTF8
Codec ID/Info                            : UTF-8 Plain Text
Duration                                 : 11 min 39 s
Bit rate                                 : 41 b/s
Frame rate                               : 0.160 FPS
Count of elements                        : 112
Stream size                              : 3.52 KiB (0%)
Language                                 : Hungarian
Default                                  : No
Forced                                   : No

Text #26
ID                                       : 60
Format                                   : UTF-8
Codec ID                                 : S_TEXT/UTF8
Codec ID/Info                            : UTF-8 Plain Text
Duration                                 : 11 min 39 s
Bit rate                                 : 42 b/s
Frame rate                               : 0.162 FPS
Count of elements                        : 113
Stream size                              : 3.60 KiB (0%)
Language                                 : Indonesian
Default                                  : No
Forced                                   : No

Text #27
ID                                       : 61
Format                                   : UTF-8
Codec ID                                 : S_TEXT/UTF8
Codec ID/Info                            : UTF-8 Plain Text
Duration                                 : 3 min 25 s
Bit rate                                 : 2 b/s
Frame rate                               : 0.015 FPS
Count of elements                        : 3
Stream size                              : 59.0 Bytes (0%)
Title                                    : Forced
Language                                 : Italian
Default                                  : No
Forced                                   : Yes

Text #28
ID                                       : 62
Format                                   : UTF-8
Codec ID                                 : S_TEXT/UTF8
Codec ID/Info                            : UTF-8 Plain Text
Duration                                 : 11 min 39 s
Bit rate                                 : 37 b/s
Frame rate                               : 0.163 FPS
Count of elements                        : 114
Stream size                              : 3.18 KiB (0%)
Language                                 : Italian
Default                                  : No
Forced                                   : No

Text #29
ID                                       : 63
Format                                   : UTF-8
Codec ID                                 : S_TEXT/UTF8
Codec ID/Info                            : UTF-8 Plain Text
Duration                                 : 2 min 4 s
Bit rate                                 : 3 b/s
Frame rate                               : 0.016 FPS
Count of elements                        : 2
Stream size                              : 50.0 Bytes (0%)
Title                                    : Forced
Language                                 : Korean
Default                                  : No
Forced                                   : Yes

Text #30
ID                                       : 64
Format                                   : UTF-8
Codec ID                                 : S_TEXT/UTF8
Codec ID/Info                            : UTF-8 Plain Text
Duration                                 : 9 min 29 s
Bit rate                                 : 52 b/s
Frame rate                               : 0.198 FPS
Count of elements                        : 113
Stream size                              : 3.67 KiB (0%)
Language                                 : Korean
Default                                  : No
Forced                                   : No

Text #31
ID                                       : 65
Format                                   : UTF-8
Codec ID                                 : S_TEXT/UTF8
Codec ID/Info                            : UTF-8 Plain Text
Duration                                 : 2 min 4 s
Bit rate                                 : 2 b/s
Frame rate                               : 0.016 FPS
Count of elements                        : 2
Stream size                              : 34.0 Bytes (0%)
Title                                    : Forced
Language                                 : Malay
Default                                  : No
Forced                                   : Yes

Text #32
ID                                       : 66
Format                                   : UTF-8
Codec ID                                 : S_TEXT/UTF8
Codec ID/Info                            : UTF-8 Plain Text
Duration                                 : 11 min 39 s
Bit rate                                 : 41 b/s
Frame rate                               : 0.160 FPS
Count of elements                        : 112
Stream size                              : 3.57 KiB (0%)
Language                                 : Malay
Default                                  : No
Forced                                   : No

Text #33
ID                                       : 67
Format                                   : UTF-8
Codec ID                                 : S_TEXT/UTF8
Codec ID/Info                            : UTF-8 Plain Text
Duration                                 : 11 min 39 s
Bit rate                                 : 40 b/s
Frame rate                               : 0.163 FPS
Count of elements                        : 114
Stream size                              : 3.47 KiB (0%)
Language                                 : Norwegian Bokmal
Default                                  : No
Forced                                   : No

Text #34
ID                                       : 68
Format                                   : UTF-8
Codec ID                                 : S_TEXT/UTF8
Codec ID/Info                            : UTF-8 Plain Text
Duration                                 : 11 min 39 s
Bit rate                                 : 38 b/s
Frame rate                               : 0.163 FPS
Count of elements                        : 114
Stream size                              : 3.28 KiB (0%)
Language                                 : Dutch
Default                                  : No
Forced                                   : No

Text #35
ID                                       : 69
Format                                   : UTF-8
Codec ID                                 : S_TEXT/UTF8
Codec ID/Info                            : UTF-8 Plain Text
Duration                                 : 11 min 39 s
Bit rate                                 : 38 b/s
Frame rate                               : 0.163 FPS
Count of elements                        : 114
Stream size                              : 3.29 KiB (0%)
Language                                 : Polish
Default                                  : No
Forced                                   : No

Text #36
ID                                       : 70
Format                                   : UTF-8
Codec ID                                 : S_TEXT/UTF8
Codec ID/Info                            : UTF-8 Plain Text
Duration                                 : 11 min 39 s
Bit rate                                 : 38 b/s
Frame rate                               : 0.163 FPS
Count of elements                        : 114
Stream size                              : 3.25 KiB (0%)
Title                                    : Brazilian
Language                                 : Portuguese (BR)
Default                                  : No
Forced                                   : No

Text #37
ID                                       : 71
Format                                   : UTF-8
Codec ID                                 : S_TEXT/UTF8
Codec ID/Info                            : UTF-8 Plain Text
Duration                                 : 2 min 4 s
Bit rate                                 : 1 b/s
Frame rate                               : 0.016 FPS
Count of elements                        : 2
Stream size                              : 20.0 Bytes (0%)
Title                                    : European (Forced)
Language                                 : Portuguese (PT)
Default                                  : No
Forced                                   : Yes

Text #38
ID                                       : 72
Format                                   : UTF-8
Codec ID                                 : S_TEXT/UTF8
Codec ID/Info                            : UTF-8 Plain Text
Duration                                 : 11 min 39 s
Bit rate                                 : 41 b/s
Frame rate                               : 0.163 FPS
Count of elements                        : 114
Stream size                              : 3.58 KiB (0%)
Title                                    : European
Language                                 : Portuguese (PT)
Default                                  : No
Forced                                   : No

Text #39
ID                                       : 73
Format                                   : UTF-8
Codec ID                                 : S_TEXT/UTF8
Codec ID/Info                            : UTF-8 Plain Text
Duration                                 : 2 s 0 ms
Bit rate                                 : 60 b/s
Frame rate                               : 0.500 FPS
Count of elements                        : 1
Stream size                              : 15.0 Bytes (0%)
Title                                    : Forced
Language                                 : Romanian
Default                                  : No
Forced                                   : Yes

Text #40
ID                                       : 74
Format                                   : UTF-8
Codec ID                                 : S_TEXT/UTF8
Codec ID/Info                            : UTF-8 Plain Text
Duration                                 : 11 min 39 s
Bit rate                                 : 41 b/s
Frame rate                               : 0.160 FPS
Count of elements                        : 112
Stream size                              : 3.58 KiB (0%)
Language                                 : Romanian
Default                                  : No
Forced                                   : No

Text #41
ID                                       : 75
Format                                   : UTF-8
Codec ID                                 : S_TEXT/UTF8
Codec ID/Info                            : UTF-8 Plain Text
Duration                                 : 11 min 39 s
Bit rate                                 : 66 b/s
Frame rate                               : 0.163 FPS
Count of elements                        : 114
Stream size                              : 5.72 KiB (0%)
Language                                 : Russian
Default                                  : No
Forced                                   : No

Text #42
ID                                       : 76
Format                                   : UTF-8
Codec ID                                 : S_TEXT/UTF8
Codec ID/Info                            : UTF-8 Plain Text
Duration                                 : 11 min 39 s
Bit rate                                 : 41 b/s
Frame rate                               : 0.163 FPS
Count of elements                        : 114
Stream size                              : 3.57 KiB (0%)
Language                                 : Swedish
Default                                  : No
Forced                                   : No

Text #43
ID                                       : 77
Format                                   : UTF-8
Codec ID                                 : S_TEXT/UTF8
Codec ID/Info                            : UTF-8 Plain Text
Duration                                 : 2 min 4 s
Bit rate                                 : 8 b/s
Frame rate                               : 0.016 FPS
Count of elements                        : 2
Stream size                              : 128 Bytes (0%)
Title                                    : Forced
Language                                 : Tamil
Default                                  : No
Forced                                   : Yes

Text #44
ID                                       : 78
Format                                   : UTF-8
Codec ID                                 : S_TEXT/UTF8
Codec ID/Info                            : UTF-8 Plain Text
Duration                                 : 3 min 23 s
Bit rate                                 : 5 b/s
Frame rate                               : 0.015 FPS
Count of elements                        : 3
Stream size                              : 136 Bytes (0%)
Title                                    : Forced
Language                                 : Telugu
Default                                  : No
Forced                                   : Yes

Text #45
ID                                       : 79
Format                                   : UTF-8
Codec ID                                 : S_TEXT/UTF8
Codec ID/Info                            : UTF-8 Plain Text
Duration                                 : 4 s 125 ms
Bit rate                                 : 104 b/s
Frame rate                               : 0.242 FPS
Count of elements                        : 1
Stream size                              : 54.0 Bytes (0%)
Title                                    : Forced
Language                                 : Thai
Default                                  : No
Forced                                   : Yes

Text #46
ID                                       : 80
Format                                   : UTF-8
Codec ID                                 : S_TEXT/UTF8
Codec ID/Info                            : UTF-8 Plain Text
Duration                                 : 11 min 39 s
Bit rate                                 : 92 b/s
Frame rate                               : 0.163 FPS
Count of elements                        : 114
Stream size                              : 7.94 KiB (0%)
Language                                 : Thai
Default                                  : No
Forced                                   : No

Text #47
ID                                       : 81
Format                                   : UTF-8
Codec ID                                 : S_TEXT/UTF8
Codec ID/Info                            : UTF-8 Plain Text
Duration                                 : 11 min 39 s
Bit rate                                 : 41 b/s
Frame rate                               : 0.163 FPS
Count of elements                        : 114
Stream size                              : 3.58 KiB (0%)
Language                                 : Turkish
Default                                  : No
Forced                                   : No

Text #48
ID                                       : 82
Format                                   : UTF-8
Codec ID                                 : S_TEXT/UTF8
Codec ID/Info                            : UTF-8 Plain Text
Duration                                 : 11 min 39 s
Bit rate                                 : 72 b/s
Frame rate                               : 0.163 FPS
Count of elements                        : 114
Stream size                              : 6.18 KiB (0%)
Language                                 : Ukrainian
Default                                  : No
Forced                                   : No

Text #49
ID                                       : 83
Format                                   : UTF-8
Codec ID                                 : S_TEXT/UTF8
Codec ID/Info                            : UTF-8 Plain Text
Duration                                 : 11 min 39 s
Bit rate                                 : 49 b/s
Frame rate                               : 0.157 FPS
Count of elements                        : 110
Stream size                              : 4.27 KiB (0%)
Language                                 : Vietnamese
Default                                  : No
Forced                                   : No

Text #50
ID                                       : 84
Format                                   : UTF-8
Codec ID                                 : S_TEXT/UTF8
Codec ID/Info                            : UTF-8 Plain Text
Duration                                 : 9 min 29 s
Bit rate                                 : 49 b/s
Frame rate                               : 0.198 FPS
Count of elements                        : 113
Stream size                              : 3.41 KiB (0%)
Title                                    : Simplified
Language                                 : Chinese (Simplified)
Default                                  : No
Forced                                   : No

Text #51
ID                                       : 85
Format                                   : UTF-8
Codec ID                                 : S_TEXT/UTF8
Codec ID/Info                            : UTF-8 Plain Text
Duration                                 : 3 s 875 ms
Bit rate                                 : 55 b/s
Frame rate                               : 0.258 FPS
Count of elements                        : 1
Stream size                              : 27.0 Bytes (0%)
Title                                    : Traditional (Forced)
Language                                 : Chinese (Traditional)
Default                                  : No
Forced                                   : Yes

Text #52
ID                                       : 86
Format                                   : UTF-8
Codec ID                                 : S_TEXT/UTF8
Codec ID/Info                            : UTF-8 Plain Text
Duration                                 : 9 min 29 s
Bit rate                                 : 50 b/s
Frame rate                               : 0.198 FPS
Count of elements                        : 113
Stream size                              : 3.50 KiB (0%)
Title                                    : Traditional
Language                                 : Chinese (Traditional)
Default                                  : No
Forced                                   : No

Menu
00:00:00.000                             : en:Scene 1
00:10:09.450                             : en:Credits

Other Files in this Torrent
Pokemon.Concierge.S01E03.I.Hope.I.Can.Evolve.Too.1080p.NF.WEB-DL.DDP5.1.H.264.MULTi-VARYG.mkv
beta
Anime DDL+NZB mirror
Current Time: 12/07/2024 14:12



About/FAQs

Discord