File Size246.5 MB (258,422,002 bytes)
DownloadAnonFiles | ClickNUpload | DropAPK | Free | MultiUp
  • BdUpload
  • DownAce
  • Fichier
  • FileCloud
  • Filerio
  • FilesCdn
  • IndiShare
  • Kbagi
  • Turbobit
  • UpToBox
  • Uppit
| SolidFiles | ZippyShare
HashesCRC32: A34EF716, MD5: D2BBFF6B5A3CC6FEA4EEB860103C6672, SHA1: 5CC0AE383E096AA367D26AE8D0D7E1BC27E20925, SHA256: 7DE4C3A85252D2AD878DA04C3D11E55A51F14A7A8234019812714CF7D5E43497, ED2K: 4B45A3DDFE8B39E41562CED0683F99A5
Screenshots
screenshotscreenshotscreenshotscreenshotscreenshot
SubtitlesAll Attachments | eng [ASS]
Additional Info
General
Unique ID                                : 191800959930642299353954704643440001400 (0x904B856DF86769E46468E48BC96C4178)
Complete name                            : [PnP] Hataraku Maou-sama! - 03 (1080p).mkv
Format                                   : Matroska
Format version                           : Version 4
File size                                : 246 MiB
Duration                                 : 23 min 45 s
Overall bit rate                         : 1 451 kb/s
Encoded date                             : UTC 2021-03-10 09:27:25
Writing application                      : mkvmerge v54.0.0 ('F Maj Pixie') 64-bit
Writing library                          : libebml v1.4.2 + libmatroska v1.6.3
Attachments                              : A-OTF TakaHandSTD-B.ttf / A-OTF-ShinMGoPro-Bold.ttf / DFGHSMaruGothic-W4.ttf / KozGoPr6N-H.ttf / KozGoPr6n-M.ttf / KylesHand.ttf / ScalaSans-Bold.ttf

Video
ID                                       : 1
Format                                   : AVC
Format/Info                              : Advanced Video Codec
Format profile                           : High@L5
Format settings                          : CABAC / 6 Ref Frames
Format settings, CABAC                   : Yes
Format settings, ReFrames                : 6 frames
Codec ID                                 : V_MPEG4/ISO/AVC
Duration                                 : 23 min 45 s
Bit rate                                 : 1 252 kb/s
Width                                    : 1 920 pixels
Height                                   : 1 080 pixels
Display aspect ratio                     : 16:9
Frame rate mode                          : Constant
Frame rate                               : 23.976 (24000/1001) FPS
Color space                              : YUV
Chroma subsampling                       : 4:2:0
Bit depth                                : 8 bits
Scan type                                : Progressive
Bits/(Pixel*Frame)                       : 0.025
Stream size                              : 213 MiB (86%)
Writing library                          : x264 core 161 r3039+17 c76b8b8 (DJATOM's mod)
Encoding settings                        : cabac=1 / ref=6 / deblock=1:1:1 / analyse=0x3:0x113 / me=hex / subme=7 / psy=1 / fade_compensate=0.00 / psy_rd=0.40:0.00 / mixed_ref=1 / me_range=16 / chroma_me=1 / trellis=1 / 8x8dct=1 / cqm=0 / deadzone=21,11 / fast_pskip=1 / chroma_qp_offset=-2 / threads=6 / lookahead_threads=1 / sliced_threads=0 / nr=0 / decimate=1 / interlaced=0 / bluray_compat=0 / constrained_intra=0 / bframes=5 / b_pyramid=2 / b_adapt=1 / b_bias=0 / direct=1 / weightb=1 / open_gop=0 / weightp=2 / keyint=250 / keyint_min=23 / scenecut=40 / intra_refresh=0 / rc_lookahead=40 / rc=crf / mbtree=1 / crf=19.0000 / qcomp=0.60 / qpmin=0 / qpmax=69 / qpstep=4 / ip_ratio=1.40 / aq=1:0.60
Default                                  : Yes
Forced                                   : No
Color range                              : Limited
Color primaries                          : BT.709
Transfer characteristics                 : BT.709
Matrix coefficients                      : BT.709

Audio
ID                                       : 2
Format                                   : AC-3
Format/Info                              : Audio Coding 3
Commercial name                          : Dolby Digital
Codec ID                                 : A_AC3
Duration                                 : 23 min 45 s
Bit rate mode                            : Constant
Bit rate                                 : 192 kb/s
Channel(s)                               : 2 channels
Channel layout                           : L R
Sampling rate                            : 48.0 kHz
Frame rate                               : 31.250 FPS (1536 SPF)
Bit depth                                : 16 bits
Compression mode                         : Lossy
Stream size                              : 32.6 MiB (13%)
Language                                 : Japanese
Service kind                             : Complete Main
Default                                  : No
Forced                                   : No

Text
ID                                       : 3
Format                                   : ASS
Codec ID                                 : S_TEXT/ASS
Codec ID/Info                            : Advanced Sub Station Alpha
Duration                                 : 23 min 43 s
Bit rate                                 : 1 321 b/s
Count of elements                        : 2111
Compression mode                         : Lossless
Stream size                              : 230 KiB (0%)
Language                                 : English
Default                                  : Yes
Forced                                   : No

Menu
00:00:00.000                             : en:Prologue
00:00:44.044                             : en:Opening
00:02:14.009                             : en:Part A
00:14:32.038                             : en:Eyecatch
00:14:37.043                             : en:Part B
00:22:05.032                             : en:Ending
00:23:35.039                             : en:Preview

Other Files in this Torrent
[PnP] Hataraku Maou-sama! - 03 (1080p).mkv
beta
Anime DDL+NZB mirror
Current Time: 02/12/2021 15:36



About/FAQs

Discord