File Size264.2 MB (277,057,967 bytes)
DownloadAnonFiles | ClickNUpload | DropAPK | Free | MultiUp
  • BdUpload
  • DownAce
  • Fichier
  • FileCloud
  • Filerio
  • FilesCdn
  • IndiShare
  • Kbagi
  • Turbobit
  • UpToBox
  • Uppit
| SolidFiles | ZippyShare
HashesCRC32: 398F216D, MD5: E2B4A75821B68B992DF53133AD3EE6A9, SHA1: BB54A5122A6E2118905B6EEFD57D6D201E8EA0E6, SHA256: A9C69B798CF25507EB136542CAA8EDA72EA3B9624B2A9F3BA5A725522235CD3D, ED2K: CFFEDA5F57CC1F40F2F4C8F3D0DD2B87
Screenshots
screenshotscreenshotscreenshotscreenshotscreenshot
SubtitlesAll Attachments | eng [ASS]
Additional Info
General
Unique ID                                : 20709053517768383725904908247373489 (0x3FD0900D63898FA0E061BC06816B1)
Complete name                            : [PnP] Hataraku Maou-sama! - 02 (1080p).mkv
Format                                   : Matroska
Format version                           : Version 4
File size                                : 264 MiB
Duration                                 : 25 min 14 s
Overall bit rate                         : 1 463 kb/s
Encoded date                             : UTC 2021-03-10 09:27:04
Writing application                      : mkvmerge v54.0.0 ('F Maj Pixie') 64-bit
Writing library                          : libebml v1.4.2 + libmatroska v1.6.3
Attachments                              : A-OTF TakaHandSTD-B.ttf / BSOD.ttf / DFGHSMaruGothic-W4.ttf / DFGMaruMoji-Heavy.ttf / HGPKakuPopTai-CP.ttf / IwaMinPro-Md-Kami.ttf / IwaOMinPro.ttf / KarmaSuture.ttf / KozGoPr6N-H.ttf / KozGoPr6n-M.ttf / KylesHand.ttf / S2G Moon.ttf / ScalaSans-Bold.ttf

Video
ID                                       : 1
Format                                   : AVC
Format/Info                              : Advanced Video Codec
Format profile                           : High@L5
Format settings                          : CABAC / 6 Ref Frames
Format settings, CABAC                   : Yes
Format settings, ReFrames                : 6 frames
Codec ID                                 : V_MPEG4/ISO/AVC
Duration                                 : 25 min 14 s
Bit rate                                 : 1 257 kb/s
Width                                    : 1 920 pixels
Height                                   : 1 080 pixels
Display aspect ratio                     : 16:9
Frame rate mode                          : Constant
Frame rate                               : 23.976 (24000/1001) FPS
Color space                              : YUV
Chroma subsampling                       : 4:2:0
Bit depth                                : 8 bits
Scan type                                : Progressive
Bits/(Pixel*Frame)                       : 0.025
Stream size                              : 227 MiB (86%)
Writing library                          : x264 core 161 r3039+17 c76b8b8 (DJATOM's mod)
Encoding settings                        : cabac=1 / ref=6 / deblock=1:1:1 / analyse=0x3:0x113 / me=hex / subme=7 / psy=1 / fade_compensate=0.00 / psy_rd=0.40:0.00 / mixed_ref=1 / me_range=16 / chroma_me=1 / trellis=1 / 8x8dct=1 / cqm=0 / deadzone=21,11 / fast_pskip=1 / chroma_qp_offset=-2 / threads=6 / lookahead_threads=1 / sliced_threads=0 / nr=0 / decimate=1 / interlaced=0 / bluray_compat=0 / constrained_intra=0 / bframes=5 / b_pyramid=2 / b_adapt=1 / b_bias=0 / direct=1 / weightb=1 / open_gop=0 / weightp=2 / keyint=250 / keyint_min=23 / scenecut=40 / intra_refresh=0 / rc_lookahead=40 / rc=crf / mbtree=1 / crf=19.0000 / qcomp=0.60 / qpmin=0 / qpmax=69 / qpstep=4 / ip_ratio=1.40 / aq=1:0.60
Default                                  : Yes
Forced                                   : No
Color range                              : Limited
Color primaries                          : BT.709
Transfer characteristics                 : BT.709
Matrix coefficients                      : BT.709

Audio
ID                                       : 2
Format                                   : AC-3
Format/Info                              : Audio Coding 3
Commercial name                          : Dolby Digital
Codec ID                                 : A_AC3
Duration                                 : 25 min 14 s
Bit rate mode                            : Constant
Bit rate                                 : 192 kb/s
Channel(s)                               : 2 channels
Channel layout                           : L R
Sampling rate                            : 48.0 kHz
Frame rate                               : 31.250 FPS (1536 SPF)
Bit depth                                : 16 bits
Compression mode                         : Lossy
Stream size                              : 34.7 MiB (13%)
Language                                 : Japanese
Service kind                             : Complete Main
Default                                  : No
Forced                                   : No

Text
ID                                       : 3
Format                                   : ASS
Codec ID                                 : S_TEXT/ASS
Codec ID/Info                            : Advanced Sub Station Alpha
Duration                                 : 25 min 12 s
Bit rate                                 : 1 307 b/s
Count of elements                        : 2258
Compression mode                         : Lossless
Stream size                              : 242 KiB (0%)
Language                                 : English
Default                                  : Yes
Forced                                   : No

Menu
00:00:00.000                             : en:Prologue
00:00:50.050                             : en:Opening
00:02:20.015                             : en:Part A
00:11:40.033                             : en:Eyecatch
00:11:45.038                             : en:Part B
00:23:34.997                             : en:Ending
00:25:04.962                             : en:Preview

Other Files in this Torrent
[PnP] Hataraku Maou-sama! - 02 (1080p).mkv
beta
Anime DDL+NZB mirror
Current Time: 27/10/2021 03:12



About/FAQs

Discord