File Size265.3 MB (278,218,484 bytes)
DownloadAnonFiles | ClickNUpload | DropAPK | Free | MultiUp
  • BdUpload
  • DownAce
  • Fichier
  • FileCloud
  • Filerio
  • FilesCdn
  • IndiShare
  • Kbagi
  • Turbobit
  • UpToBox
  • Uppit
| SolidFiles | ZippyShare
HashesCRC32: 74BFB9D0, MD5: 85F5ED7929F89E84120864105BF23737, SHA1: C87C9AA24A788D5FED554BFEA168DD5CE5BA6056, SHA256: 88AF8B7403A9E1D37BBA1294BF64431B5A8C194070EA62DD1E169F718CC8A18D, ED2K: 7C6C304CCED798852F28BCB7466109E0
Screenshots
screenshotscreenshotscreenshotscreenshotscreenshot
SubtitlesAll Attachments | eng [ASS]
Additional Info
General
Unique ID                                : 162171550799085162841201488314223455879 (0x7A011AC5D4D5B5AF6947E607B9726E87)
Complete name                            : [PnP] Hataraku Maou-sama! - 13 (1080p).mkv
Format                                   : Matroska
Format version                           : Version 4
File size                                : 265 MiB
Duration                                 : 23 min 44 s
Overall bit rate                         : 1 563 kb/s
Encoded date                             : UTC 2021-03-10 09:30:45
Writing application                      : mkvmerge v54.0.0 ('F Maj Pixie') 64-bit
Writing library                          : libebml v1.4.2 + libmatroska v1.6.3
Attachments                              : A-OTF Gothic MB101 Pro B Bold.ttf / A-OTF Kyoukasho ICA Pro.ttf / A-OTF TakaHandSTD-B.ttf / A-OTF-ShinMGoPro-Bold.ttf / BSOD.ttf / DFGHSMaruGothic-W4.ttf / DFPHSGothic-W7-CP.ttf / FOT Rodin Pro UB.ttf / KozGoPr6n-B.ttf / KozGoPr6n-M.ttf / LEHN214.ttf / LEHN277.ttf / S2G Moon.ttf / ScalaSans-Bold.ttf

Video
ID                                       : 1
Format                                   : AVC
Format/Info                              : Advanced Video Codec
Format profile                           : High@L5
Format settings                          : CABAC / 6 Ref Frames
Format settings, CABAC                   : Yes
Format settings, ReFrames                : 6 frames
Codec ID                                 : V_MPEG4/ISO/AVC
Duration                                 : 23 min 44 s
Bit rate                                 : 1 362 kb/s
Width                                    : 1 920 pixels
Height                                   : 1 080 pixels
Display aspect ratio                     : 16:9
Frame rate mode                          : Constant
Frame rate                               : 23.976 (24000/1001) FPS
Color space                              : YUV
Chroma subsampling                       : 4:2:0
Bit depth                                : 8 bits
Scan type                                : Progressive
Bits/(Pixel*Frame)                       : 0.027
Stream size                              : 231 MiB (87%)
Writing library                          : x264 core 161 r3039+17 c76b8b8 (DJATOM's mod)
Encoding settings                        : cabac=1 / ref=6 / deblock=1:1:1 / analyse=0x3:0x113 / me=hex / subme=7 / psy=1 / fade_compensate=0.00 / psy_rd=0.40:0.00 / mixed_ref=1 / me_range=16 / chroma_me=1 / trellis=1 / 8x8dct=1 / cqm=0 / deadzone=21,11 / fast_pskip=1 / chroma_qp_offset=-2 / threads=6 / lookahead_threads=1 / sliced_threads=0 / nr=0 / decimate=1 / interlaced=0 / bluray_compat=0 / constrained_intra=0 / bframes=5 / b_pyramid=2 / b_adapt=1 / b_bias=0 / direct=1 / weightb=1 / open_gop=0 / weightp=2 / keyint=250 / keyint_min=23 / scenecut=40 / intra_refresh=0 / rc_lookahead=40 / rc=crf / mbtree=1 / crf=19.0000 / qcomp=0.60 / qpmin=0 / qpmax=69 / qpstep=4 / ip_ratio=1.40 / aq=1:0.60
Default                                  : Yes
Forced                                   : No
Color range                              : Limited
Color primaries                          : BT.709
Transfer characteristics                 : BT.709
Matrix coefficients                      : BT.709

Audio
ID                                       : 2
Format                                   : AC-3
Format/Info                              : Audio Coding 3
Commercial name                          : Dolby Digital
Codec ID                                 : A_AC3
Duration                                 : 23 min 44 s
Bit rate mode                            : Constant
Bit rate                                 : 192 kb/s
Channel(s)                               : 2 channels
Channel layout                           : L R
Sampling rate                            : 48.0 kHz
Frame rate                               : 31.250 FPS (1536 SPF)
Bit depth                                : 16 bits
Compression mode                         : Lossy
Stream size                              : 32.6 MiB (12%)
Language                                 : Japanese
Service kind                             : Complete Main
Default                                  : No
Forced                                   : No

Text
ID                                       : 3
Format                                   : ASS
Codec ID                                 : S_TEXT/ASS
Codec ID/Info                            : Advanced Sub Station Alpha
Duration                                 : 23 min 34 s
Bit rate                                 : 520 b/s
Count of elements                        : 887
Compression mode                         : Lossless
Stream size                              : 89.8 KiB (0%)
Language                                 : English
Default                                  : Yes
Forced                                   : No

Menu
00:00:00.000                             : en:Prologue
00:04:16.006                             : en:Opening
00:05:46.012                             : en:Part A
00:12:05.016                             : en:Eyecatch
00:12:10.021                             : en:Part B
00:21:06.765                             : en:Ending
00:22:33.852                             : en:Epilogue

Other Files in this Torrent
[PnP] Hataraku Maou-sama! - 13 (1080p).mkv
beta
Anime DDL+NZB mirror
Current Time: 27/10/2021 03:48



About/FAQs

Discord