[Pn8] Tokyo Ghoul S01E02 Incubation [Funi-DL] [1080p] [C68D4815].mp4


File Size709.1 MB (743,551,039 bytes)
DownloadGo4Up | Jheberg | MultiUp
  • ClickNupload
  • Fichier
  • Filerio
  • Free
  • Fufox
  • HugeFiles
  • Mightyupload
  • ToutBox
  • Turbobit
  • UpToBox
  • Uplea
  • UploadBaz
  • Uploadable
  • Uploaded
  • Uppit

Sendspace: Part1, Part2, Part3
ShareBeast: Part1, Part2, Part3, Part4
SolidFiles: Part1, Part2
Encrypted DownloadDirect
Password:
HashesCRC32: C68D4815, MD5: 3FCE4E7FC97C3560EA151664CC90B507, SHA1: 64F8D7A8333450AAE5764FD9659AE681BF71EE55, SHA256: 215B7E4D1186062BA469D81EA4D3A442E65B56D99DD58C7B52B0B3EB64FDD040, ED2K: 201ACE747AA38127DC78B46607DE2197
Screenshots
screenshotscreenshotscreenshotscreenshotscreenshot
Additional Info
General
Complete name                            : [Pn8] Tokyo Ghoul S01E02 Incubation [Funi-DL] [1080p] [C68D4815].mp4
Format                                   : MPEG-4
Format profile                           : Base Media / Version 2
Codec ID                                 : mp42
File size                                : 709 MiB
Duration                                 : 24mn 6s
Overall bit rate mode                    : Variable
Overall bit rate                         : 4 113 Kbps
Collection                               : Tokyo Ghoul
Season                                   : 1
Album                                    : Tokyo Ghoul, Season 1
Album/Performer                          : Tokyo Ghoul
Part                                     : 2
Part/Position                            : 1
Part/Total                               : 1
Track name                               : Incubation
Track name/Position                      : 2
Performer                                : Tokyo Ghoul
Genre                                    : Anime, Dubbed
ContentType                              : TV Show
Description                              : Kaneki desperately fights the urge to eat human flesh, the only thing that can satisfy his hunger as a ghoul. He meets up with Hide again, joining him on an errand, and is glad for the companionship. But will his declining condition place Hide at risk? / In modern day Tokyo, society lives in fear of Ghouls: mysterious creatures who look exactly like humans -- yet hunger insatiably for their flesh. None of this matters to Ken Kaneki, a bookish and ordinary young man, until a dark and violent encounter turns him into the first ever Ghoul-human half breed. Trapped between two worlds, Ken must survive the violent conflicts of warring Ghoul factions, while attempting to learn more about Ghoul society, his newfound powers, and the fine line between man and monster.
Recorded date                            : 2015-08-18
Encoded date                             : UTC 2015-08-18 09:15:09
Tagged date                              : UTC 2015-08-18 20:51:29
Writing application                      : none / Pikanet128
Cover                                    : Yes
Comment                                  : Source=Funicom-DL;
PodcastURL                               : Funicom-DL
LongDescription                          : Kaneki desperately fights the urge to eat human flesh, the only thing that can satisfy his hunger as a ghoul. He meets up with Hide again, joining him on an errand, and is glad for the companionship. But will his declining condition place Hide at risk?
Part_ID                                  : S01E02
AppleStoreCatalogID                      : 59477
AppleStoreAccount                        : Pikanet128
ContentRating                            : us-tv|TV-MA|600|

Video
ID                                       : 1
Format                                   : AVC
Format/Info                              : Advanced Video Codec
Format profile                           : High@L5.1
Format settings, CABAC                   : Yes
Format settings, ReFrames                : 2 frames
Codec ID                                 : avc1
Codec ID/Info                            : Advanced Video Coding
Duration                                 : 24mn 6s
Bit rate mode                            : Constant
Bit rate                                 : 4 000 Kbps
Width                                    : 1 920 pixels
Height                                   : 1 080 pixels
Display aspect ratio                     : 16:9
Frame rate mode                          : Constant
Frame rate                               : 23.976 fps
Color space                              : YUV
Chroma subsampling                       : 4:2:0
Bit depth                                : 8 bits
Scan type                                : Progressive
Bits/(Pixel*Frame)                       : 0.080
Stream size                              : 686 MiB (97%)
Language                                 : English
Encoded date                             : UTC 2015-08-18 09:15:09
Tagged date                              : UTC 2015-08-18 09:15:09
Color primaries                          : BT.709
Transfer characteristics                 : BT.709
Matrix coefficients                      : BT.709
Color range                              : Limited

Audio
ID                                       : 2
Format                                   : AAC
Format/Info                              : Advanced Audio Codec
Format profile                           : LC
Codec ID                                 : 40
Duration                                 : 24mn 6s
Bit rate mode                            : Variable
Bit rate                                 : 126 Kbps
Maximum bit rate                         : 427 Kbps
Channel(s)                               : 2 channels
Channel positions                        : Front: L R
Sampling rate                            : 44.1 KHz
Compression mode                         : Lossy
Stream size                              : 21.7 MiB (3%)
Language                                 : English
Encoded date                             : UTC 2015-08-18 09:15:09
Tagged date                              : UTC 2015-08-18 09:15:09
mdhd_Duration                            : 1446162

Other Files in this Torrent
[Pn8] Tokyo Ghoul S01E02 Incubation [Funi-DL] [1080p] [C68D4815].mp4
beta
Anime DDL+NZB mirror
Current Time: 15/11/2019 02:17



About/FAQs