[Pn8] Tokyo Ghoul S01E01 Tragedy [Funi-DL] [1080p] [63EF4B43].mp4


File Size772.9 MB (810,435,267 bytes)
DownloadJheberg | MultiUp
  • ClickNupload
  • Fichier
  • Filerio
  • Free
  • Fufox
  • HugeFiles
  • Mightyupload
  • ToutBox
  • Turbobit
  • UpToBox
  • Uplea
  • UploadBaz
  • Uploadable
  • Uploaded
  • Uppit

Sendspace: Part1, Part2, Part3
ShareBeast: Part1, Part2, Part3, Part4
SolidFiles: Part1, Part2
Encrypted DownloadDirect
Password:
HashesCRC32: 63EF4B43, MD5: 61796A3A5CB2413DF5511CA958B1F1B6, SHA1: 9E8BEE6E5A7E1EE87E75FC20EC48F10FDC9B7D91, SHA256: 271E774B9804F481F28925011169A9B983816F119B947C38EFB924CEC9CDE93E, ED2K: FBEDA5AB27AC2C178E8B2AFB4F6CECD3
Screenshots
screenshotscreenshotscreenshotscreenshotscreenshot
Additional Info
General
Complete name                            : [Pn8] Tokyo Ghoul S01E01 Tragedy [Funi-DL] [1080p] [63EF4B43].mp4
Format                                   : MPEG-4
Format profile                           : Base Media / Version 2
Codec ID                                 : mp42
File size                                : 773 MiB
Duration                                 : 26mn 8s
Overall bit rate mode                    : Variable
Overall bit rate                         : 4 134 Kbps
Collection                               : Tokyo Ghoul
Season                                   : 1
Album                                    : Tokyo Ghoul, Season 1
Album/Performer                          : Tokyo Ghoul
Part                                     : 1
Part/Position                            : 1
Part/Total                               : 1
Track name                               : Tragedy
Track name/Position                      : 1
Performer                                : Tokyo Ghoul
Genre                                    : Anime, Dubbed
ContentType                              : TV Show
Description                              : Amid news reports of "Ghoul" attacks nearby, Ken Kaneki points out Rize, a girl he is interested in, to his friend Hide at a local coffee shop. When Kaneki discovers the two share a favorite author, he asks her out. However, their date ends in tragedy! / In modern day Tokyo, society lives in fear of Ghouls: mysterious creatures who look exactly like humans -- yet hunger insatiably for their flesh. None of this matters to Ken Kaneki, a bookish and ordinary young man, until a dark and violent encounter turns him into the first ever Ghoul-human half breed. Trapped between two worlds, Ken must survive the violent conflicts of warring Ghoul factions, while attempting to learn more about Ghoul society, his newfound powers, and the fine line between man and monster.
Recorded date                            : 2015-08-18
Encoded date                             : UTC 2015-08-18 09:46:03
Tagged date                              : UTC 2015-08-18 20:51:29
Writing application                      : none / Pikanet128
Cover                                    : Yes
Comment                                  : Source=Funicom-DL;
PodcastURL                               : Funicom-DL
LongDescription                          : Amid news reports of "Ghoul" attacks nearby, Ken Kaneki points out Rize, a girl he is interested in, to his friend Hide at a local coffee shop. When Kaneki discovers the two share a favorite author, he asks her out. However, their date ends in tragedy!
Part_ID                                  : S01E01
AppleStoreCatalogID                      : 59476
AppleStoreAccount                        : Pikanet128
ContentRating                            : us-tv|TV-MA|600|

Video
ID                                       : 1
Format                                   : AVC
Format/Info                              : Advanced Video Codec
Format profile                           : High@L5.1
Format settings, CABAC                   : Yes
Format settings, ReFrames                : 2 frames
Codec ID                                 : avc1
Codec ID/Info                            : Advanced Video Coding
Duration                                 : 26mn 8s
Source duration                          : 26mn 8s
Bit rate mode                            : Constant
Bit rate                                 : 4 000 Kbps
Width                                    : 1 920 pixels
Height                                   : 1 080 pixels
Display aspect ratio                     : 16:9
Frame rate mode                          : Constant
Frame rate                               : 23.976 fps
Color space                              : YUV
Chroma subsampling                       : 4:2:0
Bit depth                                : 8 bits
Scan type                                : Progressive
Bits/(Pixel*Frame)                       : 0.080
Stream size                              : 748 MiB (97%)
Source stream size                       : 748 MiB (97%)
Language                                 : English
Encoded date                             : UTC 2015-08-18 09:46:03
Tagged date                              : UTC 2015-08-18 09:46:03
Color primaries                          : BT.709
Transfer characteristics                 : BT.709
Matrix coefficients                      : BT.709
Color range                              : Limited

Audio
ID                                       : 2
Format                                   : AAC
Format/Info                              : Advanced Audio Codec
Format profile                           : LC
Codec ID                                 : 40
Duration                                 : 26mn 8s
Bit rate mode                            : Variable
Bit rate                                 : 126 Kbps
Maximum bit rate                         : 529 Kbps
Channel(s)                               : 2 channels
Channel positions                        : Front: L R
Sampling rate                            : 44.1 KHz
Compression mode                         : Lossy
Stream size                              : 23.5 MiB (3%)
Language                                 : English
Encoded date                             : UTC 2015-08-18 09:46:03
Tagged date                              : UTC 2015-08-18 09:46:03
mdhd_Duration                            : 1568206

Other Files in this Torrent
[Pn8] Tokyo Ghoul S01E01 Tragedy [Funi-DL] [1080p] [63EF4B43].mp4
beta
Anime DDL+NZB mirror
Current Time: 12/12/2019 00:43



About/FAQs