Extras/[Pn8] Tokyo Ghoul S01TRA The Complete First Season [Funi-DL] [1080p] [BE7AF8B3].mp4


File Size60.57 MB (63,515,078 bytes)
DownloadGo4Up | Jheberg | MultiUp
  • ClickNupload
  • Fichier
  • Filerio
  • Free
  • Fufox
  • HugeFiles
  • Mightyupload
  • ToutBox
  • Turbobit
  • UpToBox
  • Uplea
  • UploadBaz
  • Uploadable
  • Uploaded
  • Uppit
  • ZippyShare
| Sendspace | ShareBeast | SolidFiles
Encrypted DownloadDirect
Password:
HashesCRC32: BE7AF8B3, MD5: 7C0EC169DBCF956463F49AAF7543CF60, SHA1: 9D4A48630FD797F9E67082C21B394C2E420AD193, SHA256: 1BEC332273D2201234444CFD331A1F3D734837D63E4F91DA855AD2346F0B3189, ED2K: 91E9ABBF162E4D97EF1F4A4685ED05EE
Screenshots
screenshotscreenshot
Additional Info
General
Complete name                            : [Pn8] Tokyo Ghoul S01TRA The Complete First Season [Funi-DL] [1080p] [BE7AF8B3].mp4
Format                                   : MPEG-4
Format profile                           : Base Media
Codec ID                                 : isom
File size                                : 60.6 MiB
Duration                                 : 2mn 2s
Overall bit rate mode                    : Variable
Overall bit rate                         : 4 159 Kbps
Collection                               : Tokyo Ghoul
Season                                   : 1
Album                                    : Tokyo Ghoul, Season 1
Album/Performer                          : Tokyo Ghoul
Part                                     : 101
Part/Position                            : 1
Part/Total                               : 1
Track name                               : The Complete First Season
Track name/Position                      : 101
Performer                                : Tokyo Ghoul
Genre                                    : Anime, Dubbed
ContentType                              : TV Show
Description                              : In modern day Tokyo, society lives in fear of Ghouls: mysterious creatures who look exactly like humans -- yet hunger insatiably for their flesh. None of this matters to Ken Kaneki, a bookish and ordinary young man, until a dark and violent encounter t... / In modern day Tokyo, society lives in fear of Ghouls: mysterious creatures who look exactly like humans -- yet hunger insatiably for their flesh. None of this matters to Ken Kaneki, a bookish and ordinary young man, until a dark and violent encounter turns him into the first ever Ghoul-human half breed. Trapped between two worlds, Ken must survive the violent conflicts of warring Ghoul factions, while attempting to learn more about Ghoul society, his newfound powers, and the fine line between man and monster.
Recorded date                            : 2015-08-18
Encoded date                             : UTC 2015-08-18 17:50:56
Tagged date                              : UTC 2015-08-18 18:06:20
Writing application                      : none / Pikanet128
Cover                                    : Yes
Comment                                  : Source=Funicom-DL;
PodcastURL                               : Funicom-DL
LongDescription                          : In modern day Tokyo, society lives in fear of Ghouls: mysterious creatures who look exactly like humans -- yet hunger insatiably for their flesh. None of this matters to Ken Kaneki, a bookish and ordinary young man, until a dark and violent encounter turns him into the first ever Ghoul-human half breed. Trapped between two worlds, Ken must survive the violent conflicts of warring Ghoul factions, while attempting to learn more about Ghoul society, his newfound powers, and the fine line between man and monster.
Part_ID                                  : S01TRA
AppleStoreCatalogID                      : 9532
AppleStoreAccount                        : Pikanet128
ContentRating                            : us-tv|TV-MA|600|
TVEPISODEIDTMP                           : S01TRA

Video
ID                                       : 1
Format                                   : AVC
Format/Info                              : Advanced Video Codec
Format profile                           : High@L4.1
Format settings, CABAC                   : Yes
Format settings, ReFrames                : 2 frames
Codec ID                                 : avc1
Codec ID/Info                            : Advanced Video Coding
Duration                                 : 2mn 2s
Bit rate mode                            : Constant
Bit rate                                 : 4 000 Kbps
Maximum bit rate                         : 11.7 Mbps
Width                                    : 1 920 pixels
Height                                   : 1 080 pixels
Display aspect ratio                     : 16:9
Frame rate mode                          : Constant
Frame rate                               : 23.976 fps
Color space                              : YUV
Chroma subsampling                       : 4:2:0
Bit depth                                : 8 bits
Scan type                                : Progressive
Bits/(Pixel*Frame)                       : 0.080
Stream size                              : 58.2 MiB (96%)
Title                                    : mp4.time_1439920238.try_1.checked.mp4.h264:level=41@GPAC0.5.1-DEV-rev5413
Encoded date                             : UTC 2015-08-18 17:50:56
Tagged date                              : UTC 2015-08-18 17:50:57
Color primaries                          : BT.709
Transfer characteristics                 : BT.709
Matrix coefficients                      : BT.709
Color range                              : Limited

Audio
ID                                       : 2
Format                                   : AAC
Format/Info                              : Advanced Audio Codec
Format profile                           : LC
Codec ID                                 : 40
Duration                                 : 2mn 2s
Bit rate mode                            : Variable
Bit rate                                 : 126 Kbps
Maximum bit rate                         : 131 Kbps
Channel(s)                               : 2 channels
Channel positions                        : Front: L R
Sampling rate                            : 44.1 KHz
Compression mode                         : Lossy
Stream size                              : 1.83 MiB (3%)
Title                                    : mp4.time_1439920238.try_1.checked.mp4.aac@GPAC0.5.1-DEV-rev5413
Encoded date                             : UTC 2015-08-18 17:50:57
Tagged date                              : UTC 2015-08-18 17:50:57

Other Files in this Torrent
Extras/[Pn8] Tokyo Ghoul S01TRA The Complete First Season [Funi-DL] [1080p] [BE7AF8B3].mp4
beta
Anime DDL+NZB mirror
Current Time: 12/12/2019 19:09



About/FAQs