Net-juu no Susume/Net-juu no Susume - 01 [BD 1080p Flac].mkv


File Size1.105 GB (1,186,419,952 bytes)
DownloadJheberg
ClickNUpload: Part1, Part2
MultiUp: Part1
  • BdUpload
  • DownAce
  • Fichier
  • FileCloud
  • Filerio
  • FilesCdn
  • IndiShare
  • Kbagi
  • Turbobit
  • UpToBox
  • Uppit
, Part2
  • BdUpload
  • DownAce
  • Fichier
  • FileCloud
  • Filerio
  • FilesCdn
  • IndiShare
  • Kbagi
  • Turbobit
  • UpToBox
  • Uppit
, Part3
  • BdUpload
  • DownAce
  • Fichier
  • FileCloud
  • Filerio
  • FilesCdn
  • IndiShare
  • Kbagi
  • Turbobit
  • UpToBox
  • Uppit

OpenLoad: Part1, Part2
Sendspace: Part1, Part2, Part3, Part4
SolidFiles: Part1, Part2, Part3
ZippyShare: Part1, Part2, Part3
HashesCRC32: 72C67DEF, MD5: FF5DE7CE8C12BBD0AD9B4DF1422587DC, SHA1: 3C9E2C7F9DA4F0AFDAB0C51DF81738323442D733, SHA256: 4DAD1118404550DC78A1364B93A7CA9B6095C99F234513376D9448ADA06EB301, ED2K: D28BF52F84859DF4FBE041E903B3EB65
Screenshots
screenshotscreenshotscreenshotscreenshotscreenshot
SubtitlesAll Attachments | eng [ASS]
Additional Info
General
Unique ID                                : 82212320694988610933392395083076241669 (0x3DD9845B948EA211D5D845EB97128905)
Complete name                            : Net-juu no Susume - 01 [BD 1080p Flac].mkv
Format                                   : Matroska
Format version                           : Version 4
File size                                : 1.10 GiB
Duration                                 : 24 min 14 s
Overall bit rate mode                    : Variable
Overall bit rate                         : 6 526 kb/s
Encoded date                             : UTC 2018-10-22 02:47:43
Writing application                      : mkvmerge v28.0.0 ('Voice In My Head') 64-bit
Writing library                          : libebml v1.3.6 + libmatroska v1.4.9
Attachments                              : a song for jennifer bold.ttf / AbelBecker Bold_0.ttf / Aero Matics Bold.ttf / AeroDB Normal.ttf / AGATA.TTF / AGENCYB.TTF / AGENCYR.TTF / Aller_Rg.ttf / Angella_demo.otf / Antipasto.ttf / A-OTF-FUTOMINA101PR5-BOLD.OTF / A-OTF-Jun34Pro-Medium.otf / A-OTF-Jun501Pro-Bold.otf / ARCENA.ttf / AXIS Std B.otf / batang.ttc / BuckeyeSSK-Bold.ttf / ChalkDustExtended.ttf / fc_fl_en.ttf / FOT-DotGothic12Std-M.otf / FOTManyoSoshoStdStripped-EB2 (1)_0.otf / GARFIELD the CAT.ttf / H_IMB11.TTF / Hand Of Sean Pro.otf / handsean.ttf / HannaHandwriting.ttf / Hira v8_0.ttf / HTOWERT.TTF / Insaniburger.ttf / LTFinnegan Medium.ttf / LTFinnegan MediumItalic.ttf / SafranDPSemiBoldFinal.ttf / SafranDPSemiBoldItalicFinalv2.ttf

Video
ID                                       : 1
Format                                   : AVC
Format/Info                              : Advanced Video Codec
Format profile                           : High 10@L5
Format settings                          : CABAC / 10 Ref Frames
Format settings, CABAC                   : Yes
Format settings, ReFrames                : 10 frames
Format settings, GOP                     : M=1, N=6
Codec ID                                 : V_MPEG4/ISO/AVC
Duration                                 : 24 min 14 s
Bit rate                                 : 4 799 kb/s
Width                                    : 1 920 pixels
Height                                   : 1 080 pixels
Display aspect ratio                     : 16:9
Frame rate mode                          : Constant
Frame rate                               : 23.976 (24000/1001) FPS
Color space                              : YUV
Chroma subsampling                       : 4:2:0
Bit depth                                : 10 bits
Scan type                                : Progressive
Bits/(Pixel*Frame)                       : 0.097
Stream size                              : 832 MiB (74%)
Writing library                          : x264 core 155 r2901 7d0ff22
Encoding settings                        : cabac=1 / ref=10 / deblock=1:1:1 / analyse=0x3:0x113 / me=hex / subme=8 / psy=1 / psy_rd=0.40:0.00 / mixed_ref=1 / me_range=16 / chroma_me=1 / trellis=2 / 8x8dct=1 / cqm=0 / deadzone=21,11 / fast_pskip=1 / chroma_qp_offset=-2 / threads=12 / lookahead_threads=2 / sliced_threads=0 / nr=0 / decimate=1 / interlaced=0 / bluray_compat=0 / constrained_intra=0 / bframes=5 / b_pyramid=2 / b_adapt=1 / b_bias=0 / direct=3 / weightb=1 / open_gop=0 / weightp=2 / keyint=96 / keyint_min=23 / scenecut=40 / intra_refresh=0 / rc_lookahead=50 / rc=crf / mbtree=1 / crf=15.0 / qcomp=0.60 / qpmin=0 / qpmax=69 / qpstep=4 / vbv_maxrate=168750 / vbv_bufsize=168750 / crf_max=0.0 / nal_hrd=none / filler=0 / ip_ratio=1.40 / aq=1:0.60
Language                                 : Japanese
Default                                  : Yes
Forced                                   : No

Audio
ID                                       : 2
Format                                   : FLAC
Format/Info                              : Free Lossless Audio Codec
Codec ID                                 : A_FLAC
Duration                                 : 24 min 14 s
Bit rate mode                            : Variable
Bit rate                                 : 1 508 kb/s
Channel(s)                               : 2 channels
Channel layout                           : L R
Sampling rate                            : 48.0 kHz
Frame rate                               : 11.719 FPS (4096 SPF)
Bit depth                                : 24 bits
Compression mode                         : Lossless
Stream size                              : 261 MiB (23%)
Writing library                          : libFLAC 1.3.2 (UTC 2017-01-01)
Language                                 : Japanese
Default                                  : Yes
Forced                                   : No

Text
ID                                       : 3
Format                                   : ASS
Codec ID                                 : S_TEXT/ASS
Codec ID/Info                            : Advanced Sub Station Alpha
Duration                                 : 24 min 0 s
Bit rate                                 : 1 050 b/s
Count of elements                        : 1636
Compression mode                         : Lossless
Stream size                              : 185 KiB (0%)
Language                                 : English
Default                                  : Yes
Forced                                   : No

Menu
00:00:00.000                             : :00:00:00.000
00:01:31.008                             : :00:01:31.008
00:10:36.052                             : :00:10:36.052
00:22:28.389                             : :00:22:28.389
00:23:58.395                             : :00:23:58.395

Other Files in this Torrent
Net-juu no Susume/Net-juu no Susume - 01 [BD 1080p Flac].mkv
beta
Anime DDL+NZB mirror
Current Time: 19/05/2024 07:57



About/FAQs

Discord