[neko-kBaraka] Boku no Hero Academia NCED 02 [BD][1080p][FLAC] [A2F3E167].mkv


File Size178.8 MB (187,530,886 bytes)
DownloadGo4Up | Jheberg | MultiUp | OpenLoad | Sendspace | SolidFiles | UsersCloud
HashesCRC32: A2F3E167, MD5: 057BB945B1AE70F10C48BD7B6C295ECF, SHA1: 9E0CAC32A328536E7B8F57B41E5848600284F56F, SHA256: 48DE3F972F22E132B3498632C025DE025EAC525B0F11F86EC127776645DD6A61, ED2K: 1C345A1F111A0203B1D90378F8314311
Screenshots
screenshotscreenshot
SubtitlesAll Attachments | eng [ASS]
Additional Info
General
Unique ID                                : 234872562457299717649944616140146961333 (0xB0B2CF63B4D06E7189D4E53980336BB5)
Complete name                            : [neko-kBaraka] Boku no Hero Academia NCED 02 [BD][1080p][FLAC] [A2F3E167].mkv
Format                                   : Matroska
Format version                           : Version 4 / Version 2
File size                                : 179 MiB
Duration                                 : 1 min 32 s
Overall bit rate mode                    : Variable
Overall bit rate                         : 16.2 Mb/s
Encoded date                             : UTC 2017-03-12 18:28:25
Writing application                      : mkvmerge v7.8.0 ('River Man') 32bit built on Mar 27 2015 16:18:02
Writing library                          : libebml v1.3.1 + libmatroska v1.4.2
Attachments                              : FOT-ChiaroStd-B.otf / libbysr.ttf

Video
ID                                       : 1
Format                                   : AVC
Format/Info                              : Advanced Video Codec
Format profile                           : High 10@L5
Format settings, CABAC                   : Yes
Format settings, ReFrames                : 4 frames
Codec ID                                 : V_MPEG4/ISO/AVC
Duration                                 : 1 min 32 s
Bit rate                                 : 15.1 Mb/s
Width                                    : 1 920 pixels
Height                                   : 1 080 pixels
Display aspect ratio                     : 16:9
Frame rate mode                          : Constant
Frame rate                               : 23.976 (24000/1001) FPS
Color space                              : YUV
Chroma subsampling                       : 4:2:0
Bit depth                                : 10 bits
Scan type                                : Progressive
Bits/(Pixel*Frame)                       : 0.304
Stream size                              : 166 MiB (93%)
Title                                    : encode by neko-shi
Writing library                          : x264 core 148 r2597M e86f3a1 (DJATOM's build)
Encoding settings                        : cabac=1 / ref=4 / deblock=1:-1:-1 / analyse=0x3:0x113 / me=umh / subme=10 / psy=1 / fade_compensate=0.00 / psy_rd=1.00:0.00 / mixed_ref=1 / me_range=24 / chroma_me=1 / trellis=2 / 8x8dct=1 / cqm=0 / deadzone=21,11 / fast_pskip=1 / chroma_qp_offset=-2 / threads=12 / lookahead_threads=2 / sliced_threads=0 / nr=0 / decimate=1 / interlaced=0 / bluray_compat=0 / constrained_intra=0 / bframes=9 / b_pyramid=2 / b_adapt=2 / b_bias=0 / direct=1 / weightb=1 / open_gop=0 / weightp=2 / keyint=250 / keyint_min=23 / scenecut=40 / intra_refresh=0 / rc=crf / mbtree=0 / crf=16.0000 / qcomp=0.70 / qpmin=0 / qpmax=81 / qpstep=4 / ip_ratio=1.40 / pb_ratio=1.30 / aq=1:1.00
Default                                  : Yes
Forced                                   : No
Color range                              : Limited
Color primaries                          : BT.709
Transfer characteristics                 : BT.709
Matrix coefficients                      : BT.709

Audio
ID                                       : 2
Format                                   : FLAC
Format/Info                              : Free Lossless Audio Codec
Codec ID                                 : A_FLAC
Duration                                 : 1 min 32 s
Bit rate mode                            : Variable
Bit rate                                 : 926 kb/s
Channel(s)                               : 2 channels
Channel positions                        : Front: L R
Sampling rate                            : 48.0 kHz
Frame rate                               : 11.727 FPS (4093 spf)
Bit depth                                : 16 bits
Stream size                              : 10.2 MiB (6%)
Title                                    : FLAC
Writing library                          : libFLAC 1.2.1 (UTC 2007-09-17)
Language                                 : Japanese
Default                                  : Yes
Forced                                   : No

Text
ID                                       : 3
Format                                   : ASS
Codec ID                                 : S_TEXT/ASS
Codec ID/Info                            : Advanced Sub Station Alpha
Duration                                 : 1 min 31 s
Bit rate                                 : 73.7 kb/s
Count of elements                        : 4256
Compression mode                         : Lossless
Stream size                              : 822 KiB (0%)
Language                                 : English
Default                                  : Yes
Forced                                   : No

Other Files in this Torrent
[neko-kBaraka] Boku no Hero Academia NCED 02 [BD][1080p][FLAC] [A2F3E167].mkv
beta
Anime DDL+NZB mirror
Current Time: 27/10/2020 04:23



About/FAQs