[neko-kBaraka] Boku no Hero Academia 13 [BD][1080p][FLAC] [3A57868B].mkv


File Size1.915 GB (2,055,822,922 bytes)
DownloadJheberg: Part1, Part2
MultiUp: Part1, Part2
OpenLoad: Part1, Part2
Sendspace: Part1, Part2, Part3, Part4, Part5, Part6, Part7
SolidFiles: Part1, Part2, Part3, Part4
UsersCloud: Part1, Part2
HashesCRC32: 3A57868B, MD5: 2031C1343443815E0DA927D836EA5B2B, SHA1: 47A8362561466D9C3602FAF8D09976B9F197C3C2, SHA256: AADD63CF084C7D6D75CC64A552976381273CD7F58910971A83012093D7B451A3, ED2K: A880CF1A195ACC3A67F57D1644F58838
Screenshots
screenshotscreenshotscreenshotscreenshotscreenshot
SubtitlesAll Attachments | eng [ASS]
Additional Info
General
Unique ID                                : 226355028634738193873047664570708772812 (0xAA4A648CA45CDBDD873A6FFD0A1BC7CC)
Complete name                            : [neko-kBaraka] Boku no Hero Academia 13 [BD][1080p][FLAC] [3A57868B].mkv
Format                                   : Matroska
Format version                           : Version 4 / Version 2
File size                                : 1.91 GiB
Duration                                 : 24 min 17 s
Overall bit rate mode                    : Variable
Overall bit rate                         : 11.3 Mb/s
Movie name                               : Boku no Hero Academia - 13: In Each of Our Hearts
Encoded date                             : UTC 2017-03-13 08:52:57
Writing application                      : mkvmerge v7.8.0 ('River Man') 32bit built on Mar 27 2015 16:18:02
Writing library                          : libebml v1.3.1 + libmatroska v1.4.2
Attachments                              : Bahij_TheSansArabic-Black.ttf / FOT-ChiaroStd-B.otf / FromWhereYouAre.ttf / HelveticaCdBlk.ttf / Impress BT.ttf / Kharabeesh Font.ttf / libbysr.ttf / Typomoderno bold.ttf

Video
ID                                       : 1
Format                                   : AVC
Format/Info                              : Advanced Video Codec
Format profile                           : High 10@L5
Format settings, CABAC                   : Yes
Format settings, ReFrames                : 4 frames
Codec ID                                 : V_MPEG4/ISO/AVC
Duration                                 : 24 min 17 s
Bit rate                                 : 10.5 Mb/s
Width                                    : 1 920 pixels
Height                                   : 1 080 pixels
Display aspect ratio                     : 16:9
Frame rate mode                          : Constant
Frame rate                               : 23.976 (24000/1001) FPS
Color space                              : YUV
Chroma subsampling                       : 4:2:0
Bit depth                                : 10 bits
Scan type                                : Progressive
Bits/(Pixel*Frame)                       : 0.211
Stream size                              : 1.78 GiB (93%)
Title                                    : encode by neko-shi
Writing library                          : x264 core 148 r2597M e86f3a1 (DJATOM's build)
Encoding settings                        : cabac=1 / ref=4 / deblock=1:-1:-1 / analyse=0x3:0x113 / me=umh / subme=10 / psy=1 / fade_compensate=0.00 / psy_rd=1.00:0.00 / mixed_ref=1 / me_range=24 / chroma_me=1 / trellis=2 / 8x8dct=1 / cqm=0 / deadzone=21,11 / fast_pskip=1 / chroma_qp_offset=-2 / threads=12 / lookahead_threads=2 / sliced_threads=0 / nr=0 / decimate=1 / interlaced=0 / bluray_compat=0 / constrained_intra=0 / bframes=9 / b_pyramid=2 / b_adapt=2 / b_bias=0 / direct=1 / weightb=1 / open_gop=0 / weightp=2 / keyint=250 / keyint_min=23 / scenecut=40 / intra_refresh=0 / rc=crf / mbtree=0 / crf=16.0000 / qcomp=0.70 / qpmin=0 / qpmax=81 / qpstep=4 / ip_ratio=1.40 / pb_ratio=1.30 / aq=1:1.00
Default                                  : Yes
Forced                                   : No
Color range                              : Limited
Color primaries                          : BT.709
Transfer characteristics                 : BT.709
Matrix coefficients                      : BT.709

Audio
ID                                       : 2
Format                                   : FLAC
Format/Info                              : Free Lossless Audio Codec
Codec ID                                 : A_FLAC
Duration                                 : 24 min 17 s
Bit rate mode                            : Variable
Bit rate                                 : 733 kb/s
Channel(s)                               : 2 channels
Channel positions                        : Front: L R
Sampling rate                            : 48.0 kHz
Frame rate                               : 11.719 FPS (4096 spf)
Bit depth                                : 16 bits
Stream size                              : 127 MiB (6%)
Title                                    : FLAC
Writing library                          : libFLAC 1.2.1 (UTC 2007-09-17)
Language                                 : Japanese
Default                                  : Yes
Forced                                   : No

Text
ID                                       : 3
Format                                   : ASS
Codec ID                                 : S_TEXT/ASS
Codec ID/Info                            : Advanced Sub Station Alpha
Duration                                 : 24 min 14 s
Bit rate                                 : 28.1 kb/s
Count of elements                        : 21613
Compression mode                         : Lossless
Stream size                              : 4.88 MiB (0%)
Language                                 : English
Default                                  : Yes
Forced                                   : No

Menu
00:00:00.000                             : en:Prologue
00:01:16.994                             : en:Opening
00:02:47.042                             : en:Part A
00:11:58.051                             : en:Part B
00:21:44.011                             : en:Ending
00:23:14.059                             : en:Epilogue
00:24:00.022                             : en:S2 PV

Other Files in this Torrent
[neko-kBaraka] Boku no Hero Academia 13 [BD][1080p][FLAC] [3A57868B].mkv
beta
Anime DDL+NZB mirror
Current Time: 27/10/2020 03:39



About/FAQs