[neko-kBaraka] Boku no Hero Academia NCED 01 [BD][1080p][FLAC] [AA2E17B0].mkv


File Size152.9 MB (160,355,772 bytes)
DownloadGo4Up | Jheberg | MultiUp | OpenLoad | Sendspace | SolidFiles | UsersCloud
HashesCRC32: AA2E17B0, MD5: BC6A8C5518B0CC76E61309B0B903E4D4, SHA1: 6F17C9B773FFB965563D8C7BD1F167BA8276EEFC, SHA256: DD11959FD8BAEC31725E4D1454698DC4B7E063A071C6320442038041C565AC5D, ED2K: A1A700E856CD6DFD5B494B0005708F01
Screenshots
screenshotscreenshot
SubtitlesAll Attachments | eng [ASS]
Additional Info
General
Unique ID                                : 206043196629449828007864045606146165295 (0x9B0279E9B94C3C64974BB320AA504A2F)
Complete name                            : [neko-kBaraka] Boku no Hero Academia NCED 01 [BD][1080p][FLAC] [AA2E17B0].mkv
Format                                   : Matroska
Format version                           : Version 4 / Version 2
File size                                : 153 MiB
Duration                                 : 1 min 32 s
Overall bit rate mode                    : Variable
Overall bit rate                         : 13.9 Mb/s
Encoded date                             : UTC 2017-03-12 18:28:09
Writing application                      : mkvmerge v7.8.0 ('River Man') 32bit built on Mar 27 2015 16:18:02
Writing library                          : libebml v1.3.1 + libmatroska v1.4.2
Attachments                              : FOT-ChiaroStd-B.otf / libbysr.ttf

Video
ID                                       : 1
Format                                   : AVC
Format/Info                              : Advanced Video Codec
Format profile                           : High 10@L5
Format settings, CABAC                   : Yes
Format settings, ReFrames                : 4 frames
Codec ID                                 : V_MPEG4/ISO/AVC
Duration                                 : 1 min 32 s
Bit rate                                 : 12.7 Mb/s
Width                                    : 1 920 pixels
Height                                   : 1 080 pixels
Display aspect ratio                     : 16:9
Frame rate mode                          : Constant
Frame rate                               : 23.976 (24000/1001) FPS
Color space                              : YUV
Chroma subsampling                       : 4:2:0
Bit depth                                : 10 bits
Scan type                                : Progressive
Bits/(Pixel*Frame)                       : 0.256
Stream size                              : 140 MiB (91%)
Title                                    : encode by neko-shi
Writing library                          : x264 core 148 r2597M e86f3a1 (DJATOM's build)
Encoding settings                        : cabac=1 / ref=4 / deblock=1:-1:-1 / analyse=0x3:0x113 / me=umh / subme=10 / psy=1 / fade_compensate=0.00 / psy_rd=1.00:0.00 / mixed_ref=1 / me_range=24 / chroma_me=1 / trellis=2 / 8x8dct=1 / cqm=0 / deadzone=21,11 / fast_pskip=1 / chroma_qp_offset=-2 / threads=12 / lookahead_threads=2 / sliced_threads=0 / nr=0 / decimate=1 / interlaced=0 / bluray_compat=0 / constrained_intra=0 / bframes=9 / b_pyramid=2 / b_adapt=2 / b_bias=0 / direct=1 / weightb=1 / open_gop=0 / weightp=2 / keyint=250 / keyint_min=23 / scenecut=40 / intra_refresh=0 / rc=crf / mbtree=0 / crf=16.0000 / qcomp=0.70 / qpmin=0 / qpmax=81 / qpstep=4 / ip_ratio=1.40 / pb_ratio=1.30 / aq=1:1.00
Default                                  : Yes
Forced                                   : No
Color range                              : Limited
Color primaries                          : BT.709
Transfer characteristics                 : BT.709
Matrix coefficients                      : BT.709

Audio
ID                                       : 2
Format                                   : FLAC
Format/Info                              : Free Lossless Audio Codec
Codec ID                                 : A_FLAC
Duration                                 : 1 min 32 s
Bit rate mode                            : Variable
Bit rate                                 : 926 kb/s
Channel(s)                               : 2 channels
Channel positions                        : Front: L R
Sampling rate                            : 48.0 kHz
Frame rate                               : 11.727 FPS (4093 spf)
Bit depth                                : 16 bits
Stream size                              : 10.2 MiB (7%)
Title                                    : FLAC
Writing library                          : libFLAC 1.2.1 (UTC 2007-09-17)
Language                                 : Japanese
Default                                  : Yes
Forced                                   : No

Text
ID                                       : 3
Format                                   : ASS
Codec ID                                 : S_TEXT/ASS
Codec ID/Info                            : Advanced Sub Station Alpha
Duration                                 : 1 min 31 s
Bit rate                                 : 73.7 kb/s
Count of elements                        : 4256
Compression mode                         : Lossless
Stream size                              : 822 KiB (1%)
Language                                 : English
Default                                  : Yes
Forced                                   : No

Other Files in this Torrent
[neko-kBaraka] Boku no Hero Academia NCED 01 [BD][1080p][FLAC] [AA2E17B0].mkv
beta
Anime DDL+NZB mirror
Current Time: 27/10/2020 03:26



About/FAQs