File Size226.6 MB (237,563,654 bytes)
DownloadAnonFiles | ClickNUpload | DropAPK | Free | MultiUp
  • BdUpload
  • DownAce
  • Fichier
  • FileCloud
  • Filerio
  • FilesCdn
  • IndiShare
  • Kbagi
  • Turbobit
  • UpToBox
  • Uppit
| SolidFiles | ZippyShare
HashesCRC32: 88812DA3, MD5: 7811718EA959926CC7838093F9C0A42F, SHA1: 8BF87744AA6509650073CD52C7286E8A1A68A547, SHA256: 6651D61D38EC8C2759C3B63D4D5A78212FAA960CC9AB0CC2596D99BD7904017C, ED2K: 894BF3D50F35E2ADC297526F6DC70912
Screenshots
screenshotscreenshotscreenshotscreenshotscreenshot
SubtitlesAll Attachments | (Coalgirls) [eng, ASS], Commentary [und, ASS]
Additional Info
General
Unique ID                                : 158639317215040958109118088643258241646 (0x7758D2361C43A5E8558E5B2371BE526E)
Complete name                            : Koimonogatari - 01 (BD 1080p) (HEVC) (Coalgirls).mkv
Format                                   : Matroska
Format version                           : Version 4
File size                                : 227 MiB
Duration                                 : 26 min 34 s
Overall bit rate mode                    : Variable
Overall bit rate                         : 1 192 kb/s
Encoded date                             : UTC 2021-05-24 23:54:23
Writing application                      : mkvmerge v45.0.0 ('Heaven in Pennies') 64-bit
Writing library                          : libebml v1.3.10 + libmatroska v1.5.2
Attachments                              : ARIALUNI.ttf / CENTURY.ttf / CenturyOldStyle-Light Bold.ttf / CenturyOldStyle-Light.ttf / CTMERCURIUSSTD-MEDIUM.otf / IwaMinPro-Lt-Madoka.ttf / IwaOMinPro-Bd-Fate.ttf / IwaOMinPro-Bd-Fate_2.ttf / IwaOMinPro-Bd-Fate_5.ttf / LHF_Scriptana.ttf / LT.ttf / LT_italic.ttf / Montara-Gothic.otf / Montara-Italic.otf / MyriadPro-Regular_0.otf / NewBaskerville.ttf / Reswysokr.otf / RotisWTF.ttf / Timpani.ttf / Magra-Bold_0.ttf / Magra-Regular_0.ttf

Video
ID                                       : 1
Format                                   : HEVC
Format/Info                              : High Efficiency Video Coding
Format profile                           : Main 10@L5.1@Main
Codec ID                                 : V_MPEGH/ISO/HEVC
Duration                                 : 26 min 34 s
Bit rate                                 : 777 kb/s
Width                                    : 1 920 pixels
Height                                   : 1 080 pixels
Display aspect ratio                     : 16:9
Frame rate mode                          : Constant
Frame rate                               : 23.976 (24000/1001) FPS
Color space                              : YUV
Chroma subsampling                       : 4:2:0
Bit depth                                : 10 bits
Bits/(Pixel*Frame)                       : 0.016
Stream size                              : 148 MiB (65%)
Writing library                          : x265 3.1+11-de920e0a3183:[Windows][GCC 9.1.1][64 bit] 10bit
Encoding settings                        : rc=crf / crf=25.0000 / qcomp=0.70 / qpstep=4 / vbv-maxrate=40000 / vbv-bufsize=40000 / vbv-init=0.9 / crf-max=0.0 / crf-min=0.0 / qpmax=69 / qpmin=0 / no-lossless / no-cu-lossless / ipratio=1.40 / pbratio=1.30 / aq-mode=2 / aq-strength=0.70 / psy-rd=0.70 / psy-rdoq=0.00 / rdoq-level=0 / cbqpoffs=0 / crqpoffs=0 / ctu=32 / min-cu-size=8 / ref=2 / limit-refs=0 / no-limit-modes / me=3 / subme=2 / merange=57 / no-hme / rd=2 / no-rd-refine / no-ssim-rd / rdpenalty=0 / deblock=0:0 / min-keyint=23 / keyint=250 / bframes=4 / bframe-bias=0 / b-adapt=2 / no-b-intra / b-pyramid / no-cutree / max-merge=2 / no-fades / weightp / no-weightb / no-rect / no-amp / sao / no-limit-sao / no-sao-non-deblock / early-skip / no-splitrd-skip / no-rskip / no-tskip / no-tskip-fast / fast-intra / scenecut=40 / scenecut-bias=0.05 / rc-lookahead=15 / gop-lookahead=0 / lookahead-slices=0 / max-tu-size=32 / tu-inter-depth=1 / tu-intra-depth=1 / limit-tu=0 / qg-size=32 / radl=0 / open-gop / no-hevc-aq / no-aq-motion / no-dynamic-refine / dynamic-rd=0.00 / nr-intra=0 / nr-inter=0 / strong-intra-smoothing / no-constrained-intra / no-strict-cbr / no-const-vbv / no-rc-grain / wpp / no-pmode / no-pme / no-psnr / no-ssim / signhide / stats-write=0 / stats-read=0 / zone-count=0 / input-csp=1 / input-res=1920x1080 / interlace=0 / total-frames=38232 / frame-threads=2 / level-idc=51 / high-tier=0 / uhd-bd=0 / no-analyze-src-pics / no-allow-non-conformance / no-repeat-headers / annexb / no-aud / no-hrd / info / hash=1 / temporal-mvp / no-temporal-layers / no-splice / no-intra-refresh / sar=0 / overscan=0 / videoformat=5 / range=0 / colorprim=1 / transfer=1 / colormatrix=1 / chromaloc=0 / display-window=0cll=0,0 / min-luma=0 / max-luma=1023 / log2-max-poc-lsb=8 / vui-timing-info / vui-hrd-info / slices=1 / no-opt-qp-pps / no-opt-ref-list-length-pps / no-multi-pass-opt-rps / no-opt-cu-delta-qp / no-hdr / no-hdr-opt / no-dhdr10-opt / no-idr-recovery-sei / analysis-reuse-level=5 / scale-factor=0 / refine-intra=0 / refine-inter=0 / refine-mv=0 / refine-ctu-distortion=0 / refine-analysis-type=0 / ctu-info=0 / copy-pic=1 / max-ausize-factor=1.0 / no-single-sei / no-svt / no-field / no-lowpass-dct / cpuid=1111039 / numa-pools=4 / log-level=2 / qp-adaptation-range=1.00
Default                                  : Yes
Forced                                   : No
Color range                              : Limited
Color primaries                          : BT.709
Transfer characteristics                 : BT.709
Matrix coefficients                      : BT.709

Audio #1
ID                                       : 2
Format                                   : AAC LC
Format/Info                              : Advanced Audio Codec Low Complexity
Codec ID                                 : A_AAC-2
Duration                                 : 26 min 34 s
Bit rate                                 : 125 kb/s
Channel(s)                               : 2 channels
Channel layout                           : L R
Sampling rate                            : 48.0 kHz
Frame rate                               : 46.875 FPS (1024 SPF)
Compression mode                         : Lossy
Delay relative to video                  : 20 ms
Stream size                              : 23.8 MiB (10%)
Language                                 : Japanese
Default                                  : No
Forced                                   : No

Audio #2
ID                                       : 5
Format                                   : MPEG Audio
Format version                           : Version 1
Format profile                           : Layer 3
Format settings                          : Joint stereo
Codec ID                                 : A_MPEG/L3
Codec ID/Hint                            : MP3
Duration                                 : 26 min 34 s
Bit rate mode                            : Variable
Bit rate                                 : 150 kb/s
Minimum bit rate                         : 32.0 kb/s
Channel(s)                               : 2 channels
Sampling rate                            : 48.0 kHz
Frame rate                               : 41.667 FPS (1152 SPF)
Compression mode                         : Lossy
Stream size                              : 28.5 MiB (13%)
Title                                    : Commentary
Writing library                          : LAME3.100
Encoding settings                        : -m j -V 2 -q 0 -lowpass 18.5 --vbr-new -b 32
Default                                  : No
Forced                                   : No

Text #1
ID                                       : 3
Format                                   : ASS
Codec ID                                 : S_TEXT/ASS
Codec ID/Info                            : Advanced Sub Station Alpha
Duration                                 : 26 min 32 s
Bit rate                                 : 831 b/s
Count of elements                        : 1829
Compression mode                         : Lossless
Stream size                              : 162 KiB (0%)
Title                                    : (Coalgirls)
Language                                 : English
Default                                  : Yes
Forced                                   : No

Text #2
ID                                       : 4
Format                                   : ASS
Codec ID                                 : S_TEXT/ASS
Codec ID/Info                            : Advanced Sub Station Alpha
Duration                                 : 26 min 28 s
Bit rate                                 : 233 b/s
Count of elements                        : 600
Compression mode                         : Lossless
Stream size                              : 45.3 KiB (0%)
Title                                    : Commentary
Default                                  : No
Forced                                   : No

Other Files in this Torrent
Monogatari S2 Arc 05 Koimonogatari/Koimonogatari - 01 (BD 1080p) (HEVC) (Coalgirls).mkv
beta
Anime DDL+NZB mirror
Current Time: 18/05/2024 10:16



About/FAQs

Discord