File Size206.5 MB (216,521,760 bytes)
DownloadAnonFiles | ClickNUpload | DropAPK | Free | MultiUp
  • BdUpload
  • DownAce
  • Fichier
  • FileCloud
  • Filerio
  • FilesCdn
  • IndiShare
  • Kbagi
  • Turbobit
  • UpToBox
  • Uppit
| SolidFiles | ZippyShare
HashesCRC32: 163652AD, MD5: 1A2D5D0A2810A28757A4C3BB7BE7F541, SHA1: DE5D97DB792F234D33A983F95F6184B738F74282, SHA256: 28DC3F4C417AE7D846EB55D8C8C1517A10D4F58698C418735197C5B5395B3C5E, ED2K: 85D0F2582DB12FFD7CA1507E6C2FDA61
Screenshots
screenshotscreenshotscreenshotscreenshotscreenshot
SubtitlesAll Attachments | English [eng, ASS], Commentary [und, ASS]
Additional Info
General
Unique ID                                : 19330849158302170379483425416546524160 (0xE8AFC72A6BE9198DC9B6F16E9F29C00)
Complete name                            : Otorimonogatari - 03 (BD 1080p) (Coalgirls).mkv
Format                                   : Matroska
Format version                           : Version 4
File size                                : 206 MiB
Duration                                 : 25 min 17 s
Overall bit rate mode                    : Variable
Overall bit rate                         : 1 141 kb/s
Encoded date                             : UTC 2021-05-24 21:37:31
Writing application                      : mkvmerge v45.0.0 ('Heaven in Pennies') 64-bit
Writing library                          : libebml v1.3.10 + libmatroska v1.5.2 / Lavf58.31.104
Attachments                              : Amienne.ttf / Arial.ttf / BettysHand Regular.ttf / CenturyOldStyle-Light Bold.ttf / CenturyOldStyle-Light.ttf / Estrangelo Edessa.ttf / euphorig.ttf / IwaMinPro-Lt-Madoka_0.ttf / IwaOMinPro-Bd-Fate.ttf / JanieHmkBold.ttf / LHF Scriptana.ttf / LinotypeFinnegan Medium.ttf / LinotypeFinnegan MediumItalic.ttf / Montara-Gothic_2.otf / Montara-Italic.otf / NewBaskerville.ttf / Reswysokr.otf / Stan's Hand.ttf / Swiss 721 Heavy BT.ttf / Swiss 721 Light BT.ttf / Swiss 721 Medium BT.ttf / Sydfonts.otf / Timpani.ttf / Young Zaphod.ttf / CENTURY.TTF / IwaOMinPro-Bd-Fate_D.ttf / My First Crush.ttf / KozGoPro-B.ttf / Magra-Regular_0.ttf / Magra-Bold_0.ttf / MyriadPro-Regular.otf / MyriadPro-SemiboldIt.otf

Video
ID                                       : 1
Format                                   : AVC
Format/Info                              : Advanced Video Codec
Format profile                           : High 10@L5.1
Format settings                          : CABAC / 12 Ref Frames
Format settings, CABAC                   : Yes
Format settings, ReFrames                : 12 frames
Codec ID                                 : V_MPEG4/ISO/AVC
Duration                                 : 25 min 15 s
Bit rate                                 : 863 kb/s
Width                                    : 1 920 pixels
Height                                   : 1 080 pixels
Display aspect ratio                     : 16:9
Frame rate mode                          : Constant
Frame rate                               : 23.976 (23976/1000) FPS
Original frame rate                      : 23.976 (24000/1001) FPS
Color space                              : YUV
Chroma subsampling                       : 4:2:0
Bit depth                                : 10 bits
Scan type                                : Progressive
Bits/(Pixel*Frame)                       : 0.017
Stream size                              : 156 MiB (76%)
Writing library                          : x264 core 142 r2431+42 c69a006 tMod [10-bit@all X86_64]
Encoding settings                        : cabac=1 / ref=12 / deblock=1:1:1 / analyse=0x3:0x133 / me=umh / subme=10 / psy=1 / fade_compensate=0.00 / psy_rd=0.60:0.00 / mixed_ref=1 / me_range=24 / chroma_me=1 / trellis=2 / 8x8dct=1 / cqm=0 / deadzone=21,11 / fast_pskip=1 / chroma_qp_offset=-2 / threads=12 / lookahead_threads=3 / sliced_threads=0 / nr=0 / decimate=1 / interlaced=0 / bluray_compat=0 / constrained_intra=0 / fgo=0 / bframes=10 / b_pyramid=2 / b_adapt=2 / b_bias=0 / direct=3 / weightb=1 / open_gop=0 / weightp=2 / keyint=250 / keyint_min=12 / scenecut=45 / intra_refresh=0 / rc_lookahead=40 / rc=crf / mbtree=1 / crf=24.0000 / qcomp=0.60 / qpmin=10:10:10 / qpmax=51:51:51 / qpstep=4 / ip_ratio=1.40 / aq=3:1.00 / aq-sensitivity=10.00 / aq-factor=1.00:1.00:1.00 / aq2=0 / aq3=0 / zones=5347,5435,crf=23.00,deblock=1:1,b-bias=0,b-pyramid=normal,ref=12,scenecut=45,me=umh,merange=24,subme=10,direct=auto,trellis=2,psy-rd=0.40:0.00/5440,5741,crf=23.00,deblock=1:1,b-bias=0,b-pyramid=normal,ref=12,scenecut=45,me=umh,merange=24,subme=10,direct=auto,trellis=2,psy-rd=0.40:0.00/6104,6975,crf=22.00,deblock=1:1,b-bias=0,b-pyramid=normal,ref=12,scenecut=45,me=umh,merange=24,subme=10,direct=auto,trellis=2,psy-rd=0.40:0.00/9571,10239,crf=23.00,deblock=1:1,b-bias=0,b-pyramid=normal,ref=12,scenecut=45,me=umh,merange=24,subme=10,direct=auto,trellis=2,psy-rd=0.40:0.00
Language                                 : English
Default                                  : Yes
Forced                                   : No

Audio #1
ID                                       : 2
Format                                   : AAC LC
Format/Info                              : Advanced Audio Codec Low Complexity
Codec ID                                 : A_AAC-2
Duration                                 : 25 min 15 s
Bit rate                                 : 74.7 kb/s
Channel(s)                               : 2 channels
Channel layout                           : L R
Sampling rate                            : 48.0 kHz
Frame rate                               : 46.875 FPS (1024 SPF)
Compression mode                         : Lossy
Delay relative to video                  : 20 ms
Stream size                              : 13.5 MiB (7%)
Title                                    : AAC 2.0
Language                                 : Japanese
Default                                  : Yes
Forced                                   : No

Audio #2
ID                                       : 5
Format                                   : MPEG Audio
Format version                           : Version 1
Format profile                           : Layer 3
Format settings                          : Joint stereo / MS Stereo
Codec ID                                 : A_MPEG/L3
Codec ID/Hint                            : MP3
Duration                                 : 25 min 17 s
Bit rate mode                            : Variable
Bit rate                                 : 157 kb/s
Minimum bit rate                         : 32.0 kb/s
Channel(s)                               : 2 channels
Sampling rate                            : 48.0 kHz
Frame rate                               : 41.667 FPS (1152 SPF)
Compression mode                         : Lossy
Stream size                              : 28.4 MiB (14%)
Title                                    : Commentary
Writing library                          : LAME3.100
Encoding settings                        : -m j -V 2 -q 0 -lowpass 18.5 --vbr-new -b 32
Default                                  : No
Forced                                   : No

Text #1
ID                                       : 3
Format                                   : ASS
Codec ID                                 : S_TEXT/ASS
Codec ID/Info                            : Advanced Sub Station Alpha
Duration                                 : 25 min 16 s
Bit rate                                 : 1 294 b/s
Count of elements                        : 2880
Compression mode                         : Lossless
Stream size                              : 240 KiB (0%)
Title                                    : English
Language                                 : English
Default                                  : Yes
Forced                                   : No

Text #2
ID                                       : 4
Format                                   : ASS
Codec ID                                 : S_TEXT/ASS
Codec ID/Info                            : Advanced Sub Station Alpha
Duration                                 : 25 min 13 s
Bit rate                                 : 291 b/s
Count of elements                        : 702
Compression mode                         : Lossless
Stream size                              : 53.9 KiB (0%)
Title                                    : Commentary
Default                                  : No
Forced                                   : No

Other Files in this Torrent
Monogatari S2 Arc 03 Otorimonogatari/Otorimonogatari - 03 (BD 1080p) (Coalgirls).mkv
beta
Anime DDL+NZB mirror
Current Time: 20/05/2024 22:30



About/FAQs

Discord