File Size290.1 MB (304,206,075 bytes)
DownloadAnonFiles | ClickNUpload | DropAPK | Free | MultiUp
  • BdUpload
  • DownAce
  • Fichier
  • FileCloud
  • Filerio
  • FilesCdn
  • IndiShare
  • Kbagi
  • Turbobit
  • UpToBox
  • Uppit
| SolidFiles | ZippyShare
HashesCRC32: C7A5CD17, MD5: D6D4389C584C13591F6171CC8D488869, SHA1: 481871F0C23185A1C1F65534818702B52929BF88, SHA256: 987245A93D2A5541D2CDC49F6AFAED88465C016B854833E8643AA1D694D2F636, ED2K: 5AAB29267CB53B89EAC12368BEB2183B
Screenshots
screenshotscreenshotscreenshotscreenshotscreenshot
SubtitlesAll Attachments | English [eng, ASS], Commentary [und, ASS]
Additional Info
General
Unique ID                                : 205350381777535251164483744206393398742 (0x9A7D0B80E773B379DC5B7178522B55D6)
Complete name                            : Onimonogatari - 03 (BD 1080p) (Coalgirls).mkv
Format                                   : Matroska
Format version                           : Version 4
File size                                : 290 MiB
Duration                                 : 26 min 4 s
Overall bit rate mode                    : Variable
Overall bit rate                         : 1 555 kb/s
Encoded date                             : UTC 2021-05-24 21:47:18
Writing application                      : mkvmerge v45.0.0 ('Heaven in Pennies') 64-bit
Writing library                          : libebml v1.3.10 + libmatroska v1.5.2 / Lavf58.31.104
Attachments                              : Amienne.ttf / Arial.ttf / BettysHand Regular.ttf / CenturyOldStyle-Light Bold.ttf / CenturyOldStyle-Light.ttf / Estrangelo Edessa.ttf / euphorig.ttf / IwaMinPro-Lt-Madoka_0.ttf / IwaOMinPro-Bd-Fate.ttf / JanieHmkBold.ttf / LHF Scriptana.ttf / LinotypeFinnegan Medium.ttf / LinotypeFinnegan MediumItalic.ttf / Montara-Gothic_2.otf / Montara-Italic.otf / NewBaskerville.ttf / Reswysokr.otf / Stan's Hand.ttf / Swiss 721 Heavy BT.ttf / Swiss 721 Light BT.ttf / Swiss 721 Medium BT.ttf / Sydfonts.otf / Timpani.ttf / Young Zaphod.ttf / BettysHand Regular.ttf / CENTURY.TTF / IwaOMinPro-Bd-Fate_0.ttf / KozGoPro-B.ttf / MyriadPro-Regular.otf / Magra-Bold_0.ttf / Magra-Regular_0.ttf / IwaOMinPro-Bd-Fate_5.ttf

Video
ID                                       : 1
Format                                   : AVC
Format/Info                              : Advanced Video Codec
Format profile                           : High 10@L5.1
Format settings                          : CABAC / 12 Ref Frames
Format settings, CABAC                   : Yes
Format settings, ReFrames                : 12 frames
Codec ID                                 : V_MPEG4/ISO/AVC
Duration                                 : 26 min 2 s
Bit rate                                 : 1 279 kb/s
Width                                    : 1 920 pixels
Height                                   : 1 080 pixels
Display aspect ratio                     : 16:9
Frame rate mode                          : Constant
Frame rate                               : 23.976 (23976/1000) FPS
Original frame rate                      : 23.976 (24000/1001) FPS
Color space                              : YUV
Chroma subsampling                       : 4:2:0
Bit depth                                : 10 bits
Scan type                                : Progressive
Bits/(Pixel*Frame)                       : 0.026
Stream size                              : 238 MiB (82%)
Writing library                          : x264 core 142 r2431+42 c69a006 tMod [10-bit@all X86_64]
Encoding settings                        : cabac=1 / ref=12 / deblock=1:1:1 / analyse=0x3:0x133 / me=umh / subme=10 / psy=1 / fade_compensate=0.00 / psy_rd=0.40:0.00 / mixed_ref=1 / me_range=24 / chroma_me=1 / trellis=2 / 8x8dct=1 / cqm=0 / deadzone=21,11 / fast_pskip=1 / chroma_qp_offset=-2 / threads=12 / lookahead_threads=3 / sliced_threads=0 / nr=0 / decimate=1 / interlaced=0 / bluray_compat=0 / constrained_intra=0 / fgo=0 / bframes=10 / b_pyramid=2 / b_adapt=2 / b_bias=0 / direct=3 / weightb=1 / open_gop=0 / weightp=2 / keyint=250 / keyint_min=12 / scenecut=45 / intra_refresh=0 / rc_lookahead=40 / rc=crf / mbtree=1 / crf=24.0000 / qcomp=0.60 / qpmin=0:0:0 / qpmax=51:51:51 / qpstep=4 / ip_ratio=1.40 / aq=3:0.90 / aq-sensitivity=10.00 / aq-factor=1.00:1.00:1.00 / aq2=0 / aq3=0 / zones=14638,32609,crf=22.50,deblock=1:1,b-bias=0,b-pyramid=normal,ref=12,scenecut=45,me=umh,merange=24,subme=10,direct=auto,trellis=2,psy-rd=0.40:0.00
Language                                 : English
Default                                  : Yes
Forced                                   : No

Audio #1
ID                                       : 2
Format                                   : AAC LC
Format/Info                              : Advanced Audio Codec Low Complexity
Codec ID                                 : A_AAC-2
Duration                                 : 26 min 2 s
Bit rate                                 : 75.8 kb/s
Channel(s)                               : 2 channels
Channel layout                           : L R
Sampling rate                            : 48.0 kHz
Frame rate                               : 46.875 FPS (1024 SPF)
Compression mode                         : Lossy
Delay relative to video                  : 20 ms
Stream size                              : 14.1 MiB (5%)
Title                                    : AAC 2.0
Language                                 : Japanese
Default                                  : Yes
Forced                                   : No

Audio #2
ID                                       : 5
Format                                   : MPEG Audio
Format version                           : Version 1
Format profile                           : Layer 3
Format settings                          : Joint stereo / MS Stereo
Codec ID                                 : A_MPEG/L3
Codec ID/Hint                            : MP3
Duration                                 : 26 min 4 s
Bit rate mode                            : Variable
Bit rate                                 : 152 kb/s
Minimum bit rate                         : 32.0 kb/s
Channel(s)                               : 2 channels
Sampling rate                            : 48.0 kHz
Frame rate                               : 41.667 FPS (1152 SPF)
Compression mode                         : Lossy
Stream size                              : 28.3 MiB (10%)
Title                                    : Commentary
Writing library                          : LAME3.100
Encoding settings                        : -m j -V 2 -q 0 -lowpass 18.5 --vbr-new -b 32
Default                                  : No
Forced                                   : No

Text #1
ID                                       : 3
Format                                   : ASS
Codec ID                                 : S_TEXT/ASS
Codec ID/Info                            : Advanced Sub Station Alpha
Duration                                 : 26 min 2 s
Bit rate                                 : 2 025 b/s
Count of elements                        : 3989
Compression mode                         : Lossless
Stream size                              : 386 KiB (0%)
Title                                    : English
Language                                 : English
Default                                  : Yes
Forced                                   : No

Text #2
ID                                       : 4
Format                                   : ASS
Codec ID                                 : S_TEXT/ASS
Codec ID/Info                            : Advanced Sub Station Alpha
Duration                                 : 25 min 59 s
Bit rate                                 : 291 b/s
Count of elements                        : 489
Compression mode                         : Lossless
Stream size                              : 55.5 KiB (0%)
Title                                    : Commentary
Default                                  : No
Forced                                   : No

Other Files in this Torrent
Monogatari S2 Arc 04 Onimonogatari/Onimonogatari - 03 (BD 1080p) (Coalgirls).mkv
beta
Anime DDL+NZB mirror
Current Time: 20/05/2024 22:38



About/FAQs

Discord